<?xml version="1.0" standalone="no"?>
<!DOCTYPE svg PUBLIC "-//W3C//DTD SVG 1.1//EN" "http://www.w3.org/Graphics/SVG/1.1/DTD/svg11.dtd" >
<svg xmlns="http://www.w3.org/2000/svg">
<metadata>Generated by IcoMoon</metadata>
<defs>
<font id="inbank-icon-light" horiz-adv-x="1024">
<font-face units-per-em="1024" ascent="960" descent="-64" />
<missing-glyph horiz-adv-x="1024" />
<glyph unicode="&#x20;" horiz-adv-x="512" d="" />
<glyph unicode="&#xe900;" glyph-name="check-circle" d="M512 944c-273.934 0-496-222.066-496-496s222.066-496 496-496 496 222.066 496 496-222.066 496-496 496zM512 16c-237.328 0-432 192.11-432 432 0 237.326 192.11 432 432 432 237.328 0 432-192.11 432-432 0-237.326-192.11-432-432-432zM795.26 565.922l-360.96-358.064c-9.41-9.334-24.606-9.274-33.94 0.136l-171.756 173.144c-9.334 9.41-9.274 24.606 0.136 33.94l17.040 16.902c9.41 9.334 24.606 9.274 33.94-0.136l137.952-139.066 326.882 324.26c9.41 9.334 24.606 9.274 33.94-0.136l16.902-17.040c9.336-9.41 9.274-24.606-0.136-33.94z" />
<glyph unicode="&#xe901;" glyph-name="check" horiz-adv-x="896" d="M827.010 776.098l-560.030-560.030-197.99 197.99c-9.372 9.372-24.568 9.372-33.942 0l-22.626-22.626c-9.372-9.372-9.372-24.568 0-33.942l237.588-237.588c9.372-9.372 24.568-9.372 33.942 0l599.626 599.626c9.372 9.372 9.372 24.568 0 33.942l-22.628 22.628c-9.372 9.372-24.568 9.372-33.94 0z" />
<glyph unicode="&#xe902;" glyph-name="envelope-open" d="M698.64 855.48c-42.084 33.53-112.764 104.52-186.64 104.52-73.33 0-142.892-69.538-186.62-104.52-69.172-54.91-219.050-175.796-290.194-234.030-21.55-17.736-35.186-44.411-35.186-74.271 0-0.004 0-0.007 0-0.011v0.001-515.168c0-53.020 42.98-96 96-96h832c53.020 0 96 42.98 96 96v515.174c0 0.003 0 0.007 0 0.011 0 29.864-13.639 56.542-35.028 74.145l-0.166 0.132c-71.142 58.224-220.994 179.108-290.166 234.018zM928 0h-832c-17.674 0-32 14.326-32 32v515.678c0 9.612 4.31 18.706 11.756 24.784 52.564 42.908 243.56 196.486 289.424 232.898 35.242 28.1 99.454 90.64 146.82 90.64 47.372 0 111.578-62.54 146.82-90.64 45.864-36.414 236.872-190.016 289.428-232.936 7.197-5.91 11.752-14.808 11.752-24.77 0-0.004 0-0.007 0-0.011v0.001-515.644c0-17.674-14.326-32-32-32zM910.494 432.624c8.378-10.312 6.786-25.464-3.552-33.81-45.654-36.852-110.27-88.472-208.312-166.296-42.090-33.6-113.742-105.036-186.636-104.516-73.16-0.528-145.652 71.816-186.636 104.526-98.030 77.816-162.642 129.432-208.298 166.286-10.338 8.346-11.932 23.498-3.552 33.81l10.094 12.424c8.338 10.262 23.408 11.85 33.696 3.544 45.526-36.752 110.028-88.286 207.876-165.956 33.7-26.874 100.402-91.38 146.826-90.63 46.438-0.742 113.124 63.754 146.826 90.63 97.858 77.678 162.356 129.21 207.876 165.956 10.29 8.306 25.358 6.718 33.696-3.544l10.096-12.424z" />
<glyph unicode="&#xe903;" glyph-name="eye" horiz-adv-x="1152" d="M1138.708 496.738c-112.77 191.366-323.092 319.262-562.708 319.262-239.72 0-449.992-127.988-562.708-319.26-8.353-13.945-13.293-30.765-13.293-48.739s4.94-34.794 13.536-49.177l-0.243 0.438c112.772-191.368 323.092-319.262 562.708-319.262 239.72 0 449.992 127.988 562.708 319.262 8.352 13.945 13.291 30.765 13.291 48.738s-4.939 34.793-13.534 49.176l0.243-0.438zM832 504c0-136.966-114.616-248-256-248s-256 111.034-256 248 114.616 248 256 248 256-111.034 256-248zM1083.568 431.754c-103.894-176.308-295.838-287.754-507.568-287.754-212.582 0-404.122 112.21-507.568 287.752-2.783 4.649-4.429 10.256-4.429 16.247s1.646 11.598 4.51 16.393l-0.081-0.146c58.144 98.666 146.682 180.87 255.32 231.774-42.062-52.402-67.752-119.156-67.752-192.020 0-171.636 142.442-312 320-312 177.54 0 320 140.356 320 312 0 72.822-25.666 139.588-67.75 192.020 107.52-50.378 196.548-132.042 255.32-231.774 2.782-4.648 4.428-10.254 4.428-16.244 0-5.992-1.646-11.599-4.511-16.394l0.081 0.146zM448 512c0 21.794 5.454 42.312 15.060 60.274v-0.040c0-29.108 23.598-52.706 52.706-52.706s52.706 23.598 52.706 52.706-23.598 52.706-52.706 52.706h-0.040c17.962 9.606 38.48 15.060 60.274 15.060 70.692 0 128-57.308 128-128s-57.308-128-128-128-128 57.308-128 128z" />
<glyph unicode="&#xe904;" glyph-name="file-download" horiz-adv-x="768" d="M739.8 764.040l-167.76 167.76c-18 18-42.4 28.2-67.78 28.2h-408.28c-52.98-0.2-95.98-43.2-95.98-96.18v-831.84c0-52.98 43-95.98 95.98-95.98h576.040c52.98 0 95.98 43 95.98 95.98v664.080c0 25.38-10.2 49.98-28.2 67.98zM512.060 894.82c5.6-1.4 10.6-4.2 14.8-8.4l167.76-167.76c4.2-4.2 7-9.2 8.4-14.8h-190.96v190.96zM704.020 31.98c0-17.6-14.4-32-32-32h-576.040c-17.6 0-32 14.4-32 32v831.84c0 17.6 14.4 32.18 32 32.18h352.080v-208.14c0-26.6 21.4-47.86 48-47.86h207.96v-608.020zM416 528c0 8.84-7.16 16-16 16h-32c-8.84 0-16-7.16-16-16v-176.040h-105.32c-22 0-41.18-12.82-50-33.44-9-21.040-4.76-45.24 10.88-61.62l136.24-143.56c10.68-11.18 24.94-17.38 40.18-17.38s29.5 6.18 40.18 17.4l136.24 143.5c15.62 16.4 19.88 40.62 10.88 61.66-8.82 20.62-28 33.44-50 33.44h-105.28v176.040zM501.68 287.96l-117.68-124-117.68 124h235.36z" />
<glyph unicode="&#xe905;" glyph-name="minus-circle" d="M280 412c-13.2 0-24 10.8-24 24v24c0 13.2 10.8 24 24 24h464c13.2 0 24-10.8 24-24v-24c0-13.2-10.8-24-24-24h-464zM1008 448c0-274-222-496-496-496s-496 222-496 496 222 496 496 496 496-222 496-496zM944 448c0 239.8-194.6 432-432 432-239.8 0-432-194.6-432-432 0-239.8 194.6-432 432-432 239.8 0 432 194.6 432 432z" />
<glyph unicode="&#xe906;" glyph-name="minus" horiz-adv-x="768" d="M752 496h-736c-8.84 0-16-7.16-16-16v-64c0-8.84 7.16-16 16-16h736c8.84 0 16 7.16 16 16v64c0 8.84-7.16 16-16 16z" />
<glyph unicode="&#xe907;" glyph-name="phone" d="M975.6 911.8l-201.6 46.6c-29.4 6.8-59.6-8.4-71.6-36.2l-93-217c-11-25.4-3.6-55.4 17.8-73l107.8-88.2c-68-138.4-180.6-251.2-319.2-319.2l-88.2 107.8c-17.6 21.4-47.6 28.8-73 17.8l-216.8-93c-27.8-12-43-42-36.2-71.4l46.4-201.4c6.6-28.6 31.8-48.6 61-48.6 504.4 0 915 408.4 915 915 0 29.2-20 54.4-48.4 60.8zM110.2 0l-46 199.2 214.8 92 119-145.6c207.2 97.2 319.4 209.8 416.2 416.2l-145.6 119 92 214.8 199.2-46c-0.4-469-380.6-849-849.6-849.6z" />
<glyph unicode="&#xe908;" glyph-name="play" horiz-adv-x="896" d="M848.8 530.6l-704 416.2c-57.2 33.8-144.8 1-144.8-82.6v-832.2c0-75 81.4-120.2 144.8-82.6l704 416c62.8 37 63 128.2 0 165.2zM816.4 420.4l-704-416c-21.2-12.2-48.4 2.4-48.4 27.6v832.2c0 32.6 32.8 36.8 48.2 27.6l704-416.2c21-12.4 21-42.8 0.2-55.2z" />
<glyph unicode="&#xe909;" glyph-name="plus-circle" d="M768 460v-24c0-13.2-10.8-24-24-24h-196v-196c0-13.2-10.8-24-24-24h-24c-13.2 0-24 10.8-24 24v196h-196c-13.2 0-24 10.8-24 24v24c0 13.2 10.8 24 24 24h196v196c0 13.2 10.8 24 24 24h24c13.2 0 24-10.8 24-24v-196h196c13.2 0 24-10.8 24-24zM1008 448c0-274-222-496-496-496s-496 222-496 496 222 496 496 496 496-222 496-496zM944 448c0 239.8-194.6 432-432 432-239.8 0-432-194.6-432-432 0-239.8 194.6-432 432-432 239.8 0 432 194.6 432 432z" />
<glyph unicode="&#xe90a;" glyph-name="plus" horiz-adv-x="768" d="M752 496h-320v320c0 8.84-7.16 16-16 16h-64c-8.84 0-16-7.16-16-16v-320h-320c-8.84 0-16-7.16-16-16v-64c0-8.84 7.16-16 16-16h320v-320c0-8.84 7.16-16 16-16h64c8.84 0 16 7.16 16 16v320h320c8.84 0 16 7.16 16 16v64c0 8.84-7.16 16-16 16z" />
<glyph unicode="&#xe90b;" glyph-name="question" horiz-adv-x="768" d="M400.686 960c-152.622 0-261.164-63.198-344.296-186.604-28.426-42.198-18.916-99.348 21.65-130.108l84.068-63.744c41.418-31.406 100.692-24.33 133.358 17.020 42.946 54.362 56.742 63.92 92.264 63.92 20.436 0 50.578-13.998 50.578-36.484 0-51.462-218.6-41.488-218.6-244.502v-27.498c0-32.014 15.766-60.398 39.926-77.848-41.356-35.246-67.634-87.684-67.634-146.152 0-105.87 86.13-192 192-192s192 86.13 192 192c0 58.468-26.278 110.906-67.634 146.152 24.16 17.452 39.926 45.834 39.926 77.848v9.41c50.772 37.98 208.572 89.008 208.572 278.846 0 182.158-180.162 319.744-356.178 319.744zM384 0c-70.58 0-128 57.42-128 128s57.42 128 128 128 128-57.42 128-128-57.42-128-128-128zM484.292 372.812v-20.812c0-17.674-14.326-32-32-32h-136.584c-17.672 0-32 14.326-32 32v27.498c0 173.564 218.6 114.652 218.6 244.502 0 64-63.358 100.484-114.578 100.484-67.566 0-98.334-32.36-142.484-88.246-10.806-13.68-30.568-16.238-44.47-5.696l-84.068 63.744c-13.514 10.248-16.714 29.288-7.24 43.354 68.284 101.362 155.248 158.36 291.218 158.36 141.326 0 292.178-110.316 292.178-255.744 0-193.11-208.572-196.082-208.572-267.444z" />
<glyph unicode="&#xe90c;" glyph-name="search" d="M1017-3.2l-258 258c-4.6 4.6-10.6 7-17 7h-20.6c68.6 74.2 110.6 173.2 110.6 282.2 0 229.8-186.2 416-416 416s-416-186.2-416-416 186.2-416 416-416c109 0 208 42 282.2 110.4v-20.4c0-6.4 2.6-12.4 7-17l258-258c9.4-9.4 24.6-9.4 34 0l19.8 19.8c9.4 9.4 9.4 24.6 0 34zM416 192c-194.6 0-352 157.4-352 352s157.4 352 352 352 352-157.4 352-352-157.4-352-352-352z" />
<glyph unicode="&#xe90d;" glyph-name="shopping-basket" horiz-adv-x="1152" d="M1128 576h-153.75l-278.464 309.406c-11.82 13.136-32.054 14.202-45.192 2.378s-14.202-32.056-2.378-45.192l239.934-266.592h-624.3l239.936 266.594c11.824 13.134 10.758 33.37-2.378 45.192-13.138 11.824-33.372 10.76-45.192-2.378l-278.466-309.408h-153.75c-13.254 0-24-10.746-24-24v-16c0-13.254 10.746-24 24-24h32.888l59.612-429.206c6.592-47.462 47.172-82.794 95.088-82.794h728.824c47.916 0 88.496 35.332 95.088 82.794l59.612 429.206h32.888c13.254 0 24 10.746 24 24v16c0 13.254-10.746 24-24 24zM972.108 91.598c-2.186-15.734-15.812-27.598-31.696-27.598h-728.824c-15.884 0-29.51 11.864-31.696 27.598l-58.388 420.402h908.994l-58.39-420.402zM608 400v-224c0-17.674-14.326-32-32-32-17.672 0-32 14.326-32 32v224c0 17.674 14.328 32 32 32 17.674 0 32-14.326 32-32zM832 400v-224c0-17.674-14.326-32-32-32s-32 14.326-32 32v224c0 17.674 14.326 32 32 32s32-14.326 32-32zM384 400v-224c0-17.674-14.328-32-32-32s-32 14.326-32 32v224c0 17.674 14.328 32 32 32s32-14.326 32-32z" />
<glyph unicode="&#xe90e;" glyph-name="sign-out" d="M96 832h264c13.2 0 24-10.8 24-24v-16c0-13.2-10.8-24-24-24h-264c-17.6 0-32-14.4-32-32v-576c0-17.6 14.4-32 32-32h264c13.2 0 24-10.8 24-24v-16c0-13.2-10.8-24-24-24h-264c-53 0-96 43-96 96v576c0 53 43 96 96 96zM654 793l-14.2-14.2c-9.4-9.4-9.4-24.6 0-34l264-262.8h-559.8c-13.2 0-24-10.8-24-24v-20c0-13.2 10.8-24 24-24h559.8l-263.8-262.8c-9.4-9.4-9.4-24.6 0-34l14.2-14.2c9.4-9.4 24.6-9.4 34 0l329 328c9.4 9.4 9.4 24.6 0 34l-329.2 328c-9.4 9.4-24.6 9.4-34 0z" />
<glyph unicode="&#xe90f;" glyph-name="sort" horiz-adv-x="640" d="M576 384h-512c-56.8 0-85.6-69-45.2-109.2l256-256c25-25 65.6-25 90.6 0l256 256c40 40.2 11.4 109.2-45.4 109.2zM320 64l-256 256h512l-256-256zM64 512h512c56.8 0 85.6 69 45.2 109.2l-256 256c-25 25-65.6 25-90.6 0l-256-256c-40-40.2-11.4-109.2 45.4-109.2zM320 832l256-256h-512l256 256z" />
<glyph unicode="&#xe910;" glyph-name="times" horiz-adv-x="640" d="M387.88 448l247.42 247.42c6.24 6.24 6.24 16.38 0 22.62l-45.26 45.26c-6.24 6.24-16.38 6.24-22.62 0l-247.42-247.42-247.42 247.44c-6.24 6.24-16.38 6.24-22.62 0l-45.28-45.26c-6.24-6.24-6.24-16.38 0-22.62l247.44-247.44-247.44-247.42c-6.24-6.24-6.24-16.38 0-22.62l45.26-45.26c6.24-6.24 16.38-6.24 22.62 0l247.44 247.42 247.42-247.42c6.24-6.24 16.38-6.24 22.62 0l45.26 45.26c6.24 6.24 6.24 16.38 0 22.62l-247.42 247.42z" />
<glyph unicode="&#xe911;" glyph-name="user-circle" horiz-adv-x="992" d="M496 944c-274 0-496-222-496-496s222-496 496-496 496 222 496 496-222 496-496 496zM752 100.8c-71.8-53-160.2-84.8-256-84.8s-184.2 31.8-256 84.8v27.2c0 70.6 57.4 128 128 128 22.2 0 55-22.8 128-22.8 73.2 0 105.6 22.8 128 22.8 70.6 0 128-57.4 128-128v-27.2zM813.2 155.8c-13.6 92.8-92.6 164.2-189.2 164.2-41 0-60.8-22.8-128-22.8s-86.8 22.8-128 22.8c-96.6 0-175.6-71.4-189.2-164.2-71 77-114.8 179.4-114.8 292.2 0 238.2 193.8 432 432 432s432-193.8 432-432c0-112.8-43.8-215.2-114.8-292.2zM496 720c-97.2 0-176-78.8-176-176s78.8-176 176-176 176 78.8 176 176-78.8 176-176 176zM496 432c-61.8 0-112 50.2-112 112s50.2 112 112 112 112-50.2 112-112-50.2-112-112-112z" />
<glyph unicode="&#xe912;" glyph-name="angle-down" horiz-adv-x="512" d="M239 306.2l-232 235.6c-9.4 9.4-9.4 24.6 0 34l14.2 14.2c9.4 9.4 24.6 9.4 34 0l200.8-204.6 200.8 204.4c9.4 9.4 24.6 9.4 34 0l14.2-14.2c9.4-9.4 9.4-24.6 0-34l-232-235.6c-9.4-9.2-24.6-9.2-34 0.2z" />
<glyph unicode="&#xe913;" glyph-name="angle-left" horiz-adv-x="384" d="M50.2 465l235.6 232c9.4 9.4 24.6 9.4 34 0l14.2-14.2c9.4-9.4 9.4-24.6 0-34l-204.6-200.8 204.4-200.8c9.4-9.4 9.4-24.6 0-34l-14.2-14.2c-9.4-9.4-24.6-9.4-34 0l-235.6 232c-9.2 9.4-9.2 24.6 0.2 34z" />
<glyph unicode="&#xe914;" glyph-name="angle-right" horiz-adv-x="384" d="M333.8 431l-235.6-232c-9.4-9.4-24.6-9.4-34 0l-14.2 14.2c-9.4 9.4-9.4 24.6 0 34l204.6 200.8-204.4 200.8c-9.4 9.4-9.4 24.6 0 34l14.2 14.2c9.4 9.4 24.6 9.4 34 0l235.6-232c9.2-9.4 9.2-24.6-0.2-34z" />
<glyph unicode="&#xe915;" glyph-name="angle-up" horiz-adv-x="512" d="M273 589.8l232-235.6c9.4-9.4 9.4-24.6 0-34l-14.2-14.2c-9.4-9.4-24.6-9.4-34 0l-200.8 204.6-200.8-204.4c-9.4-9.4-24.6-9.4-34 0l-14.2 14.2c-9.4 9.4-9.4 24.6 0 34l232 235.6c9.4 9.2 24.6 9.2 34-0.2z" />
<glyph unicode="&#xe916;" glyph-name="calendar-alt" horiz-adv-x="896" d="M800 832h-96v104c0 13.2-10.8 24-24 24h-16c-13.2 0-24-10.8-24-24v-104h-384v104c0 13.2-10.8 24-24 24h-16c-13.2 0-24-10.8-24-24v-104h-96c-53 0-96-43-96-96v-704c0-53 43-96 96-96h704c53 0 96 43 96 96v704c0 53-43 96-96 96zM96 768h704c17.6 0 32-14.4 32-32v-96h-768v96c0 17.6 14.4 32 32 32zM800 0h-704c-17.6 0-32 14.4-32 32v544h768v-544c0-17.6-14.4-32-32-32zM296 320h-80c-13.2 0-24 10.8-24 24v80c0 13.2 10.8 24 24 24h80c13.2 0 24-10.8 24-24v-80c0-13.2-10.8-24-24-24zM488 320h-80c-13.2 0-24 10.8-24 24v80c0 13.2 10.8 24 24 24h80c13.2 0 24-10.8 24-24v-80c0-13.2-10.8-24-24-24zM680 320h-80c-13.2 0-24 10.8-24 24v80c0 13.2 10.8 24 24 24h80c13.2 0 24-10.8 24-24v-80c0-13.2-10.8-24-24-24zM488 128h-80c-13.2 0-24 10.8-24 24v80c0 13.2 10.8 24 24 24h80c13.2 0 24-10.8 24-24v-80c0-13.2-10.8-24-24-24zM296 128h-80c-13.2 0-24 10.8-24 24v80c0 13.2 10.8 24 24 24h80c13.2 0 24-10.8 24-24v-80c0-13.2-10.8-24-24-24zM680 128h-80c-13.2 0-24 10.8-24 24v80c0 13.2 10.8 24 24 24h80c13.2 0 24-10.8 24-24v-80c0-13.2-10.8-24-24-24z" />
<glyph unicode="&#xe917;" glyph-name="chevron-circle-left" d="M1008 448c0 274-222 496-496 496s-496-222-496-496 222-496 496-496 496 222 496 496zM512 16c-237.4 0-432 192.2-432 432 0 237.4 192.2 432 432 432 237.4 0 432-192.2 432-432 0-237.4-192.2-432-432-432zM338.8 465l230.2 230c9.4 9.4 24.6 9.4 34 0l14.2-14.2c9.4-9.4 9.4-24.6 0-34l-199.2-198.8 199-199c9.4-9.4 9.4-24.6 0-34l-14.2-14.2c-9.4-9.4-24.6-9.4-34 0l-230.2 230c-9.2 9.6-9.2 24.8 0.2 34.2z" />
<glyph unicode="&#xe918;" glyph-name="chevron-circle-right" d="M16 448c0-274 222-496 496-496s496 222 496 496-222 496-496 496-496-222-496-496zM512 880c237.4 0 432-192.2 432-432 0-237.4-192.2-432-432-432-237.4 0-432 192.2-432 432 0 237.4 192.2 432 432 432zM685.2 431l-230.2-230c-9.4-9.4-24.6-9.4-34 0l-14.2 14.2c-9.4 9.4-9.4 24.6 0 34l199.2 198.8-199 199c-9.4 9.4-9.4 24.6 0 34l14.2 14.2c9.4 9.4 24.6 9.4 34 0l230.2-230c9.2-9.6 9.2-24.8-0.2-34.2z" />
<glyph unicode="&#xe919;" glyph-name="chart-line" d="M1008 128h-944v688c0 8.84-7.16 16-16 16h-32c-8.84 0-16-7.16-16-16v-720c0-17.68 14.32-32 32-32h976c8.84 0 16 7.16 16 16v32c0 8.84-7.16 16-16 16zM196.68 433.94c-6.24-6.24-6.24-16.38 0-22.62l22.62-22.62c6.24-6.24 16.38-6.24 22.62 0l145.38 144.020 169.38-169.38c12.5-12.5 32.76-12.5 45.26 0l187.060 187.060 88.080-88.080c9.9-9.9 22.060-14.32 34-14.32 24.96 0 48.92 19.4 48.92 48.68v238.94c0 17.88-14.5 32.38-32.38 32.38h-238.94c-43.28 0-64.94-52.32-34.34-82.92l89.42-89.42-164.44-164.44-169.26 169.26c-12.46 12.46-32.64 12.5-45.14 0.1l-168.24-166.64zM725.92 704h170.080v-170.080l-170.080 170.080z" />
<glyph unicode="&#xe91a;" glyph-name="clipboard-list" horiz-adv-x="768" d="M560 480h-224c-8.8 0-16-7.2-16-16v-32c0-8.8 7.2-16 16-16h224c8.8 0 16 7.2 16 16v32c0 8.8-7.2 16-16 16zM560 288h-224c-8.8 0-16-7.2-16-16v-32c0-8.8 7.2-16 16-16h224c8.8 0 16 7.2 16 16v32c0 8.8-7.2 16-16 16zM224 496c-26.6 0-48-21.4-48-48s21.4-48 48-48 48 21.4 48 48-21.4 48-48 48zM224 304c-26.6 0-48-21.4-48-48s21.4-48 48-48 48 21.4 48 48-21.4 48-48 48zM672 832h-177.2c0.8 5.2 1.2 10.6 1.2 16 0 61.8-50.2 112-112 112s-112-50.2-112-112c0-5.4 0.4-10.8 1.2-16h-177.2c-53 0-96-43-96-96v-704c0-53 43-96 96-96h576c53 0 96 43 96 96v704c0 53-43 96-96 96zM384 896c26.6 0 48-21.4 48-48s-21.4-48-48-48-48 21.4-48 48 21.4 48 48 48zM704 32c0-17.6-14.4-32-32-32h-576c-17.6 0-32 14.4-32 32v704c0 17.6 14.4 32 32 32h96v-40c0-13.2 10.8-24 24-24h336c13.2 0 24 10.8 24 24v40h96c17.6 0 32-14.4 32-32v-704z" />
<glyph unicode="&#xe91b;" glyph-name="clock" d="M512 944c-274 0-496-222-496-496s222-496 496-496 496 222 496 496-222 496-496 496zM944 448c0-237.4-192.2-432-432-432-237.4 0-432 192.2-432 432 0 237.4 192.2 432 432 432 237.4 0 432-192.2 432-432zM646.2 271.4l-162.4 118c-6.2 4.6-9.8 11.8-9.8 19.4v319.2c0 13.2 10.8 24 24 24h28c13.2 0 24-10.8 24-24v-292.6l141-102.6c10.8-7.8 13-22.8 5.2-33.6l-16.4-22.6c-7.8-10.6-22.8-13-33.6-5.2z" />
<glyph unicode="&#xe91c;" glyph-name="comments" horiz-adv-x="1152" d="M1064 187.6c55 54.2 88 122.2 88 196.4 0 160-153 292.2-352.4 315.8-62.8 115.2-211 196.2-383.6 196.2-229.8 0-416-143.2-416-320 0-74 33-142 88-196.4-30.6-61.4-74.6-109-75.4-109.8-12.6-13.4-16.2-33-8.8-50 7.2-17 24-28 42.4-28 107 0 193.4 40.4 250.4 77.6 18.2-4.2 36.8-7.4 56-9.6 63-115 211-196 383.6-196 41.6 0 81.6 4.8 119.6 13.6 57-37 143.2-77.6 250.4-77.6 18.4 0 35 11 42.4 28 7.2 17 3.8 36.6-8.8 50-1 0.8-45.2 48.4-75.8 109.8zM284.4 338l-22.8-14.8c-40.2-26.2-101-56.4-175.4-65 17.6 22.6 40.4 55.2 59 92.8l20.8 41.6-33 32.6c-31.6 31-69 82.4-69 150.8 0 141.2 158 256 352 256s352-114.8 352-256-158-256-352-256c-35.4 0-70.8 4-105.2 12l-26.4 6zM890.4 131.2l-22.8 14.8-26.4-6.2c-34.4-8-69.8-12-105.2-12-130.2 0-244 51.8-304.8 128.6 222.6 6.4 400.8 146.8 400.8 319.6 0 19-2.6 37.4-6.6 55.4 150.8-29 262.6-128.8 262.6-247.4 0-68.4-37.4-119.8-69-150.8l-33-32.6 20.6-41.4c18.8-37.8 41.6-70.4 59-92.8-74.2 8.4-135 38.8-175.2 64.8zM814.8 666.6c0.2-0.4 0.2-0.8 0.4-1.2-0.2 0.4-0.2 0.8-0.4 1.2z" />
<glyph unicode="&#xe91d;" glyph-name="envelope" d="M928 832h-832c-53 0-96-43-96-96v-576c0-53 43-96 96-96h832c53 0 96 43 96 96v576c0 53-43 96-96 96zM96 768h832c17.6 0 32-14.4 32-32v-82.8c-43.8-37-106.4-88-301.2-242.6-33.8-26.8-100.4-91.4-146.8-90.6-46.4-0.8-113.2 63.8-146.8 90.6-194.8 154.6-257.4 205.6-301.2 242.6v82.8c0 17.6 14.4 32 32 32zM928 128h-832c-17.6 0-32 14.4-32 32v410c45.6-37.4 117.6-95.2 261.4-209.4 41-32.8 113.4-105 186.6-104.6 72.8-0.6 144.6 71 186.6 104.6 143.8 114.2 215.8 172 261.4 209.4v-410c0-17.6-14.4-32-32-32z" />
<glyph unicode="&#xe91e;" glyph-name="file-alt" horiz-adv-x="768" d="M739.8 764.2l-167.8 167.8c-18 18-42.4 28.2-67.8 28.2h-408.2c-53-0.2-96-43.2-96-96.2v-832c0-53 43-96 96-96h576c53 0 96 43 96 96v664.2c0 25.4-10.2 50-28.2 68zM694.6 718.8c4.2-4.2 7-9.2 8.4-14.8h-191v191c5.6-1.4 10.6-4.2 14.8-8.4l167.8-167.8zM672 0h-576c-17.6 0-32 14.4-32 32v832c0 17.6 14.4 32 32 32h352v-208c0-26.6 21.4-48 48-48h208v-608c0-17.6-14.4-32-32-32zM576 488v-16c0-13.2-10.8-24-24-24h-336c-13.2 0-24 10.8-24 24v16c0 13.2 10.8 24 24 24h336c13.2 0 24-10.8 24-24zM576 360v-16c0-13.2-10.8-24-24-24h-336c-13.2 0-24 10.8-24 24v16c0 13.2 10.8 24 24 24h336c13.2 0 24-10.8 24-24zM576 232v-16c0-13.2-10.8-24-24-24h-336c-13.2 0-24 10.8-24 24v16c0 13.2 10.8 24 24 24h336c13.2 0 24-10.8 24-24z" />
<glyph unicode="&#xe91f;" glyph-name="file-chart-line" horiz-adv-x="768" d="M272 320h-32c-8.8 0-16-7.2-16-16v-192c0-8.8 7.2-16 16-16h32c8.8 0 16 7.2 16 16v192c0 8.8-7.2 16-16 16zM400 512h-32c-8.8 0-16-7.2-16-16v-384c0-8.8 7.2-16 16-16h32c8.8 0 16 7.2 16 16v384c0 8.8-7.2 16-16 16zM480 368v-256c0-8.8 7.2-16 16-16h32c8.8 0 16 7.2 16 16v256c0 8.8-7.2 16-16 16h-32c-8.8 0-16-7.2-16-16zM739.8 764.040l-167.76 167.76c-18 18-42.4 28.2-67.78 28.2h-408.28c-52.98-0.2-95.98-43.2-95.98-96.18v-831.84c0-52.98 43-95.98 95.98-95.98h576.040c52.98 0 95.98 43 95.98 95.98v664.080c0 25.38-10.2 49.98-28.2 67.98zM512.060 894.82c5.6-1.4 10.6-4.2 14.8-8.4l167.76-167.76c4.2-4.2 7-9.2 8.4-14.8h-190.96v190.96zM704.020 31.98c0-17.6-14.4-32-32-32h-576.040c-17.6 0-32 14.4-32 32v831.84c0 17.6 14.4 32.18 32 32.18h352.080v-208.14c0-26.6 21.4-47.86 48-47.86h207.96v-608.020z" />
<glyph unicode="&#xe920;" glyph-name="layer-group" d="M1024 447.98c0 19.96-11.62 37.88-29.54 45.62l-199.48 86.54 199.4 86.52c18 7.78 29.62 25.68 29.62 45.62s-11.62 37.84-29.54 45.58l-450.58 195.48c-20.2 8.88-43.42 8.9-63.74 0.040l-450.52-195.5c-18-7.78-29.62-25.68-29.62-45.62s11.62-37.84 29.54-45.58l199.46-86.56-199.4-86.52c-17.98-7.76-29.6-25.66-29.6-45.62 0-19.94 11.62-37.84 29.54-45.58l199.44-86.52-199.38-86.5c-17.98-7.8-29.6-25.7-29.6-45.66 0-19.94 11.62-37.84 29.54-45.58l450.64-195.52c9.368-4.171 20.298-6.606 31.795-6.62h0.005c10.84 0 21.68 2.2 31.8 6.62l450.58 195.48c18 7.78 29.62 25.68 29.62 45.62 0 19.96-11.62 37.88-29.54 45.62l-199.44 86.52 199.38 86.5c18 7.78 29.62 25.68 29.62 45.62zM90.46 712.26l416.12 180.56c3.48 1.42 7.3 1.52 10.9-0.040l416.060-180.52-416.060-180.54c-3.62-1.54-7.48-1.54-10.96 0l-416.060 180.54zM933.54 183.72l-416.060-180.52c-3.62-1.54-7.48-1.54-10.96 0l-416.060 180.54 221.52 96.12 168.22-72.98c9.368-4.171 20.298-6.606 31.795-6.62h0.005c10.84 0 21.68 2.2 31.8 6.62l168.22 72.98 221.52-96.14zM517.48 267.46c-3.62-1.54-7.48-1.54-10.96 0l-416.060 180.54 221.54 96.12 168.2-73c9.368-4.171 20.298-6.606 31.795-6.62h0.005c10.84 0 21.68 2.2 31.8 6.62l168.2 72.98 221.54-96.14-416.060-180.5z" />
<glyph unicode="&#xe921;" glyph-name="question-circle" d="M512 280c-30.928 0-56-25.072-56-56s25.072-56 56-56 56 25.072 56 56-25.072 56-56 56zM527.34 328h-32c-13.254 0-24 10.746-24 24v0.762c0 140.686 154.88 127.238 154.88 214.816 0 40.032-35.522 80.422-114.88 80.422-58.288 0-88.53-19.298-118.422-57.384-7.816-9.96-22.108-11.99-32.496-4.752l-26.268 18.3c-11.25 7.838-13.72 23.542-5.29 34.354 42.452 54.454 92.82 89.482 182.476 89.482 104.64 0 194.88-59.502 194.88-160.422 0-134.828-154.88-127.698-154.88-214.816v-0.762c0-13.254-10.746-24-24-24zM512 880c237.242 0 432-192.15 432-432 0-238.582-193.22-432-432-432-238.488 0-432 193.124-432 432 0 238.406 193.204 432 432 432zM512 944c-273.914 0-496-222.166-496-496 0-273.994 222.086-496 496-496s496 222.006 496 496c0 273.834-222.086 496-496 496z" />
<glyph unicode="&#xe922;" glyph-name="sliders-h" d="M1008 192h-624v80c0 26.6-21.4 48-48 48h-96c-26.6 0-48-21.4-48-48v-80h-176c-8.8 0-16-7.2-16-16v-32c0-8.8 7.2-16 16-16h176v-80c0-26.6 21.4-48 48-48h96c26.6 0 48 21.4 48 48v80h624c8.8 0 16 7.2 16 16v32c0 8.8-7.2 16-16 16zM320 64h-64v192h64v-192zM1008 768h-496v80c0 26.6-21.4 48-48 48h-96c-26.6 0-48-21.4-48-48v-80h-304c-8.8 0-16-7.2-16-16v-32c0-8.8 7.2-16 16-16h304v-80c0-26.6 21.4-48 48-48h96c26.6 0 48 21.4 48 48v80h496c8.8 0 16 7.2 16 16v32c0 8.8-7.2 16-16 16zM448 640h-64v192h64v-192zM1008 480h-176v80c0 26.6-21.4 48-48 48h-96c-26.6 0-48-21.4-48-48v-80h-624c-8.8 0-16-7.2-16-16v-32c0-8.8 7.2-16 16-16h624v-80c0-26.6 21.4-48 48-48h96c26.6 0 48 21.4 48 48v80h176c8.8 0 16 7.2 16 16v32c0 8.8-7.2 16-16 16zM768 352h-64v192h64v-192z" />
<glyph unicode="&#xe923;" glyph-name="wrench" d="M1014.84 731.020c-4.68 18.94-19.32 33.96-38.12 39.22-18.94 5.22-39.3 0-53.3-13.96l-127.74-127.74-88.5 14.72-14.76 88.48 127.74 127.74c13.88 13.84 19.24 34.18 14 53.080-5.24 18.94-20.38 33.66-39.5 38.4-103.46 25.66-210.76-4.040-286.38-79.56-75.68-75.74-104.42-185.040-77.24-289.4l-386.66-386.58c-59.18-59.26-59.18-155.66 0-214.9 28.7-28.7 66.88-44.52 107.5-44.52s78.74 15.82 107.42 44.52l386.28 386.22c104.060-27.46 213.6 1.44 289.78 77.64 75.62 75.62 105.36 182.78 79.48 286.64zM890.12 489.62c-63.74-63.62-156.86-85.26-243.54-56.46l-18.76 6.28-413.76-413.68c-33.24-33.24-91.18-33.24-124.42 0-34.24 34.28-34.24 90.12 0 124.42l414.020 413.96-6.18 18.68c-28.62 86.9-7.12 180.12 56.060 243.34 45.42 45.44 105.34 69.84 167.58 69.84 13.74 0 27.62-1.18 41.44-3.62l-138.62-138.7 27.62-166.040 166.12-27.64 138.6 138.7c13.44-76.5-10.68-153.58-66.16-209.080zM160 128c-17.68 0-32-14.32-32-32s14.32-32 32-32 32 14.32 32 32-14.32 32-32 32z" />
<glyph unicode="&#xe924;" glyph-name="globe" horiz-adv-x="992" d="M496 944c-273.92 0-496-222.060-496-496s222.080-496 496-496 496 222.060 496 496-222.080 496-496 496zM882.42 640h-35.42c-34.76 0-63-28.24-63-63l0.56-12.94-25.24-13.38c-5.32-0.96-16.82-1.32-30.18-1.94-64.62-3.040-93.76-5.34-105.82-29.22l-8-20.24 36.88-55.22c11.427-17.014 30.596-28.060 52.345-28.060 0.012 0 0.025 0 0.037 0h-0.002l15.44 1 0.18-22.040-37.62-50.18c-5.436-7.309-9.396-16.046-11.254-25.536l-0.066-0.404-8.38-45.12c-20.76-19-39.24-40.6-54.94-64.16l-26.060-39.060c-9.32-13.96-33.060-12.66-40.56 2.56-8.373 16.365-13.291 35.695-13.32 56.171v59.769c0 34.76-28.24 63-63 63h-51.76c-20.62 0-40 8.040-54.62 22.62-14.56 14.6-22.62 34-22.62 54.62v28.12c0 24.18 11.56 47.32 30.88 61.82l55.24 41.38c21.88 16.54 55.44 20.84 82.62 7.28l29.44-14.72c15-7.46 32.060-8.76 48.12-3.4l94.62 31.54c25.231 8.581 43.060 32.064 43.060 59.712 0 0.017 0 0.034 0 0.051v-0.003c0 34.76-28.24 63-63 63l-19.44-0.32-13.88 13.88c-11.88 11.88-27.68 18.44-44.5 18.44l-179.16-1.020-0.76 7.84 28.88 7.22c15.32 3.82 28.5 13.12 37.12 26.12l15.32 23.82h48.44c34.76 0 63 28.24 63 63v5.88c127.48-29.080 233.4-114.6 290.42-228.88zM496 16c-238.2 0-432 193.8-432 432s193.8 432 432 432c11.080 0 21.92-0.84 32.78-1.66l0.22-14.34h-48.44c-21.060 0-40.68-10.5-52.38-28.040l-15.56-23.84-28.94-7.22c-28.060-7.060-47.68-32.18-47.68-61.080v-8.82c0-34.76 28.24-63 63-63l179.44 0.32 13.88-13.88c11.88-11.9 27.68-18.44 44.5-18.44l19.88 1.94-93.88-31.56-29.44 14.72c-44.68 22.34-106.76 19-149.68-13.34l-55.18-41.38c-35.4-26.54-56.52-68.78-56.52-113v-28.12c0-37.72 14.68-73.18 41.38-99.88s62.12-41.38 99.86-41.38l50.76 1v-59.76c0-29.38 6.94-58.76 20.060-84.84 14.88-29.84 44.88-48.4 78.24-48.4 29.32 0 56.5 14.56 72.82 38.96l26.060 39.1c12.88 19.28 28 36.94 44.82 52.34 10.18 9.24 16.94 21.32 19.5 34.9l8.44 45.24 37.5 50c8.12 10.84 12.56 24.24 12.56 37.78v22.68c0 34.76-28.24 63-63 63l-15.56-0.4-2.44 3.66c10.76 0.68 21.62 1.22 29.060 1.56 31.76 1.46 41.32 2.1 50.32 6.6l30.82 15.4c21.5 10.76 34.82 32.34 34.82 56.34l-1 12.84h61.62c12.58-40.46 19.38-83.46 19.38-128-0.020-238.2-193.82-432-432.020-432z" />
<glyph unicode="&#xe925;" glyph-name="arrow-from-left" horiz-adv-x="896" d="M592 761l297-296c9.4-9.4 9.4-24.6 0-34l-297-296c-9.4-9.4-24.6-9.4-34 0l-14.2 14.2c-9.4 9.4-9.4 24.6 0 34l232 230.8h-623.8c-13.2 0-24 10.8-24 24v20c0 13.2 10.8 24 24 24h623.8l-231.8 230.8c-9.4 9.4-9.4 24.6 0 34l14.2 14.2c9.2 9.4 24.4 9.4 33.8 0zM24 64h16c13.2 0 24 10.8 24 24v720c0 13.2-10.8 24-24 24h-16c-13.2 0-24-10.8-24-24v-720c0-13.2 10.8-24 24-24z" />
<glyph unicode="&#xe926;" glyph-name="arrow-from-right" horiz-adv-x="896" d="M304 135l-297 296c-9.4 9.4-9.4 24.6 0 34l297 296c9.4 9.4 24.6 9.4 34 0l14.2-14.2c9.4-9.4 9.4-24.6 0-34l-232-230.8h623.8c13.2 0 24-10.8 24-24v-20c0-13.2-10.8-24-24-24h-623.8l231.8-230.8c9.4-9.4 9.4-24.6 0-34l-14.2-14.2c-9.2-9.4-24.4-9.4-33.8 0zM872 832h-16c-13.2 0-24-10.8-24-24v-720c0-13.2 10.8-24 24-24h16c13.2 0 24 10.8 24 24v720c0 13.2-10.8 24-24 24z" />
<glyph unicode="&#xe927;" glyph-name="arrow-from-left-circle" d="M618.66 223.080l171.34 204.6c2.533 3.201 4.063 7.297 4.063 11.75s-1.53 8.549-4.094 11.79l0.030-0.040-171.34 204.62c-2.269 2.978-5.817 4.88-9.81 4.88s-7.541-1.902-9.788-4.85l-0.022-0.030-8.18-9.8c-2.533-3.201-4.063-7.297-4.063-11.75s1.53-8.549 4.094-11.79l-0.030 0.040 133.8-159.54h-359.76c-7.6 0-13.84-7.46-13.84-16.6v-13.82c0-9.12 6.24-16.58 13.84-16.58h359.76l-133.68-159.56c-2.533-3.201-4.063-7.297-4.063-11.75s1.53-8.549 4.094-11.79l-0.030 0.040 8.18-9.82c2.245-2.976 5.775-4.88 9.75-4.88s7.505 1.904 9.728 4.849l0.022 0.031zM291.080 704.88h9.24c7.6 0 13.84-7.48 13.84-16.6v-497.7c0-9.12-6.24-16.58-13.84-16.58h-9.24c-7.6 0-13.84 7.46-13.84 16.58v497.7c0 9.12 6.24 16.6 13.84 16.6zM512-48c-274 0-496 222-496 496s222 496 496 496 496-222 496-496-222-496-496-496zM944 448c0 237.4-192.2 432-432 432-237.4 0-432-192.2-432-432 0-237.4 192.2-432 432-432 237.4 0 432 192.2 432 432z" />
<glyph unicode="&#xe928;" glyph-name="arrow-from-right-circle" d="M409.34 223.080l-171.34 204.6c-2.533 3.201-4.063 7.297-4.063 11.75s1.53 8.549 4.094 11.79l-0.030-0.040 171.34 204.62c2.269 2.978 5.817 4.88 9.81 4.88s7.541-1.902 9.788-4.85l0.022-0.030 8.18-9.82c2.533-3.201 4.063-7.297 4.063-11.75s-1.53-8.549-4.094-11.79l0.030 0.040-133.8-159.54h359.76c7.6 0 13.84-7.46 13.84-16.6v-13.82c0-9.12-6.24-16.58-13.84-16.58h-359.76l133.68-159.54c2.533-3.201 4.063-7.297 4.063-11.75s-1.53-8.549-4.094-11.79l0.030 0.040-8.18-9.82c-2.245-2.976-5.775-4.88-9.75-4.88s-7.505 1.904-9.728 4.849l-0.022 0.031zM736.92 704.88h-9.24c-7.6 0-13.84-7.48-13.84-16.6v-497.7c0-9.12 6.24-16.58 13.84-16.58h9.24c7.6 0 13.84 7.46 13.84 16.58v497.7c0 9.12-6.24 16.6-13.84 16.6zM512-48c274 0 496 222 496 496s-222 496-496 496-496-222-496-496 222-496 496-496zM80 448c0 237.4 192.2 432 432 432 237.4 0 432-192.2 432-432 0-237.4-192.2-432-432-432-237.4 0-432 192.2-432 432z" />
<glyph unicode="&#xe929;" glyph-name="chevron-circle-down" d="M512 944c-274 0-496-222-496-496s222-496 496-496 496 222 496 496-222 496-496 496zM944 448c0-237.4-192.2-432-432-432-237.4 0-432 192.2-432 432 0 237.4 192.2 432 432 432 237.4 0 432-192.2 432-432zM529 274.8l230 230.2c9.4 9.4 9.4 24.6 0 34l-14.2 14.2c-9.4 9.4-24.6 9.4-34 0l-198.8-199.2-199 199c-9.4 9.4-24.6 9.4-34 0l-14.2-14.2c-9.4-9.4-9.4-24.6 0-34l230-230.2c9.6-9.2 24.8-9.2 34.2 0.2z" />
<glyph unicode="&#xe92a;" glyph-name="chevron-circle-up" d="M512-48c274 0 496 222 496 496s-222 496-496 496-496-222-496-496 222-496 496-496zM80 448c0 237.4 192.2 432 432 432 237.4 0 432-192.2 432-432 0-237.4-192.2-432-432-432-237.4 0-432 192.2-432 432zM529 621.2l230-230.2c9.4-9.4 9.4-24.6 0-34l-14.2-14.2c-9.4-9.4-24.6-9.4-34 0l-198.8 199.2-199-199c-9.4-9.4-24.6-9.4-34 0l-14.2 14.2c-9.4 9.4-9.4 24.6 0 34l230 230.2c9.6 9.2 24.8 9.2 34.2-0.2z" />
<glyph unicode="&#xe92b;" glyph-name="ban" d="M512 944c-273.934 0-496-222.066-496-496s222.066-496 496-496 496 222.066 496 496-222.066 496-496 496zM206.53 142.53c-161.244 161.244-168.298 417.914-21.8 587.486l609.288-609.286c-169.608-146.528-426.276-139.412-587.488 21.8zM839.27 165.984l-609.286 609.286c169.608 146.526 426.274 139.41 587.486-21.8 161.244-161.242 168.298-417.914 21.8-587.486z" />
<glyph unicode="&#xe92c;" glyph-name="file-check" horiz-adv-x="768" d="M739.882 764.118l-167.764 167.764c-17.373 17.373-41.372 28.118-67.882 28.118h-408.236c-53.020 0-96-42.98-96-96v-832c0-53.020 42.98-96 96-96h576c53.020 0 96 42.98 96 96v664.236c0 26.51-10.745 50.509-28.118 67.882v0zM694.628 718.862c3.983-3.98 6.914-9.011 8.343-14.642l0.047-0.22h-191.018v191.018c5.851-1.475 10.883-4.406 14.862-8.39v0l167.766-167.766zM672 0h-576c-17.674 0-32 14.326-32 32v832c0 17.674 14.326 32 32 32h352v-208c0-26.51 21.49-48 48-48h208v-608c0-17.674-14.326-32-32-32zM603.066 421.898l-269.582-267.42c-9.4-9.326-24.576-9.284-33.926 0.092l-134.716 135.104c-9.366 9.394-9.344 24.602 0.048 33.97l17.010 16.96c9.394 9.366 24.602 9.344 33.968-0.048l100.884-101.174 235.564 233.674c9.418 9.342 24.626 9.282 33.97-0.136l16.916-17.054c9.344-9.418 9.282-24.626-0.136-33.968z" />
<glyph unicode="&#xe92d;" glyph-name="file-contract" horiz-adv-x="768" d="M393.32 233.34l-27.76 83.24c-6.56 19.62-24.88 32.82-45.56 32.82s-39-13.18-45.56-32.82l-36.44-109.3c-3-9.16-11.56-15.28-21.18-15.28h-24.82c-17.68 0-32-14.32-32-32s14.32-32 32-32h24.82c37.24 0 70.18 23.76 81.94 59.060l21.24 63.78 33.62-100.96c4.131-12.109 14.995-20.839 28.017-21.774l0.103-0.006c0.76-0.060 1.5-0.1 2.24-0.1 12.060 0 23.18 6.82 28.62 17.72l15.32 30.66c5.56 11.18 15.88 12.38 20.060 12.38s14.5-1.18 20.38-13.060c14.76-29.4 44.38-47.68 77.24-47.68h30.4c17.68 0 32 14.32 32 32s-14.32 32-32 32h-30.38c-8.56 0-16.24 4.76-20.32 13-23.92 47.7-92.48 60.66-131.98 28.32zM144 768h224c8.84 0 16 7.16 16 16v32c0 8.84-7.16 16-16 16h-224c-8.84 0-16-7.16-16-16v-32c0-8.84 7.16-16 16-16zM384 656v32c0 8.84-7.16 16-16 16h-224c-8.84 0-16-7.16-16-16v-32c0-8.84 7.16-16 16-16h224c8.84 0 16 7.16 16 16zM739.8 764.040l-167.76 167.76c-18 18-42.4 28.2-67.78 28.2h-408.28c-52.98-0.2-95.98-43.2-95.98-96.18v-831.84c0-52.98 43-95.98 95.98-95.98h576.040c52.98 0 95.98 43 95.98 95.98v664.080c0 25.38-10.2 49.98-28.2 67.98zM512.060 894.82c5.6-1.4 10.6-4.2 14.8-8.4l167.76-167.76c4.2-4.2 7-9.2 8.4-14.8h-190.96v190.96zM704.020 31.98c0-17.6-14.4-32-32-32h-576.040c-17.6 0-32 14.4-32 32v831.84c0 17.6 14.4 32.18 32 32.18h352.080v-208.14c0-26.6 21.4-47.86 48-47.86h207.96v-608.020z" />
<glyph unicode="&#xe92e;" glyph-name="file-edit" horiz-adv-x="768" d="M739.8 764.2l-167.8 167.8c-18 18-42.4 28.2-67.8 28.2h-408.2c-53-0.2-96-43.2-96-96.2v-832c0-53 43-96 96-96h576c53 0 96 43 96 96v664.2c0 25.4-10.2 50-28.2 68zM694.6 718.8c4.2-4.2 7-9.2 8.4-14.8h-191v191c5.6-1.4 10.6-4.2 14.8-8.4l167.8-167.8zM672 0h-576c-17.6 0-32 14.4-32 32v832c0 17.6 14.4 32 32 32h352v-208c0-26.6 21.4-48 48-48h208v-608c0-17.6-14.4-32-32-32zM438.4 465.6l59.2-59.2c3.6-3.6 3.6-9.2 0-12.8l-224.8-224.8-60.2-8.6c-11.8-1.6-22 8.4-20.4 20.4l8.6 60.2 224.8 224.8c3.6 3.6 9.2 3.6 12.8 0zM567.2 463.2l-32.8-32.8c-3.6-3.6-9.2-3.6-12.8 0l-59.2 59.2c-3.6 3.6-3.6 9.2 0 12.8l32.8 32.8c11.8 11.8 30.8 11.8 42.4 0l29.6-29.6c11.8-11.6 11.8-30.6 0-42.4z" />
<glyph unicode="&#xe92f;" glyph-name="file-pdf" horiz-adv-x="768" d="M739.8 764.2l-167.8 167.8c-18 18-42.4 28.2-67.8 28.2h-408.2c-53-0.2-96-43.2-96-96.2v-832c0-53 43-96 96-96h576c53 0 96 43 96 96v664.2c0 25.4-10.2 50-28.2 68zM694.6 718.8c4.2-4.2 7-9.2 8.4-14.8h-191v191c5.6-1.4 10.6-4.2 14.8-8.4l167.8-167.8zM672 0h-576c-17.6 0-32 14.4-32 32v832c0 17.6 14.4 32 32 32h352v-208c0-26.6 21.4-48 48-48h208v-608c0-17.6-14.4-32-32-32zM628 342.4c-27 26.6-110 18.4-147.4 13.4-42.4 25.6-70.4 60.8-90.2 113.2 8.6 36 24 94.4 12.8 129.8-8.8 56.2-79.4 49.4-89.2 13.6-10-36.6-0.6-88.8 16.8-155.6-23.8-56.8-59.4-133.8-84.2-177.2-41.6-21.4-108.2-58.6-117.6-104.8-7-33.6 45.8-78.8 106.2-12.8 18.2 19.8 38.6 49.6 62.6 91 53.4 17.6 112.2 39.6 164 48 43.8-24 95.2-39.8 129.2-39.8 55.4-0.2 57.8 60.4 37 81.2zM169.6 164.4c11.8 31.8 57.2 68.8 71 81.6-44.2-70.6-71-83-71-81.6zM360 609c17.4 0 15.6-75 4.2-95.2-10.4 32.6-10 95.2-4.2 95.2zM303.2 290.4c22.6 39.6 42 86.4 57.6 127.4 19.4-35.4 44.2-63.4 70.2-83-48.6-9.4-90.8-30.2-127.8-44.4zM610 302.2s-11.6-14-87 18.2c82 6 95.4-12.8 87-18.2z" />
<glyph unicode="&#xe930;" glyph-name="file-signature" horiz-adv-x="1152" d="M1121.66 688.080l-49.58 49.58c-40.46 40.48-106 40.52-146.52 0l-157.56-157.1v115.5c0 25.4-10.2 50-28.2 67.98l-167.76 167.76c-18 18-42.4 28.2-67.78 28.2h-408.28c-52.98-0.2-95.98-43.2-95.98-96.18v-831.84c0-52.98 43-95.98 95.98-95.98h576.040c52.98 0 95.98 43 95.98 95.98v161.080c12.58 9.36 25.24 18.7 36.36 29.9l317.28 318.6c19.58 19.56 30.34 45.58 30.34 73.26s-10.76 53.68-30.32 73.26zM512.060 894.82c5.6-1.4 10.6-4.2 14.8-8.4l167.76-167.76c4.2-4.2 7-9.2 8.4-14.8h-190.96v190.96zM704.020 31.98c0-17.6-14.4-32-32-32h-576.040c-17.6 0-32 14.4-32 32v831.84c0 17.6 14.4 32.18 32 32.18h352.080v-208.14c0-26.6 21.4-47.86 48-47.86h207.96v-123.060l-97.020-96.48c-60.28-59.92-94.84-143.020-94.94-228-7.86 0.58-14.94 4.84-18.72 12.54-23.94 47.72-92.5 60.68-132 28.34l-27.76 83.24c-6.56 19.62-24.88 32.82-45.56 32.82s-39-13.18-45.56-32.82l-36.46-109.3c-3-9.16-11.56-15.28-21.18-15.28h-24.82c-17.68 0-32-14.32-32-32s14.32-32 32-32h24.82c37.24 0 70.18 23.76 81.94 59.060l21.24 63.78 33.62-100.96c9.080-27.020 46.28-29.66 59-4.16l15.32 30.66c8.020 16.14 31.6 17.18 40.44-0.68 14.5-28.92 43.42-47.1 75.62-47.7h64c44.1 0.020 87.9 9.8 128.020 27.2v-123.22zM758.98 268.080c-46.743-46.995-111.453-76.080-182.956-76.080-0.009 0-0.017 0-0.026 0h0.002v0.060c0 68.7 27.4 134.58 76.12 183.020l241.1 239.74 105.6-105.6-239.84-241.14zM1076.4 586.8l-42.38-42.38-105.6 105.6 42.4 42.38c15.46 15.46 40.54 15.48 56.020 0l49.58-49.58c15.44-15.46 15.44-40.54-0.020-56.020z" />
<glyph unicode="&#xe931;" glyph-name="file-times" horiz-adv-x="768" d="M739.8 764.2l-167.8 167.8c-18 18-42.4 28.2-67.8 28.2h-408.2c-53-0.2-96-43.2-96-96.2v-832c0-53 43-96 96-96h576c53 0 96 43 96 96v664.2c0 25.4-10.2 50-28.2 68zM694.6 718.8c4.2-4.2 7-9.2 8.4-14.8h-191v191c5.6-1.4 10.6-4.2 14.8-8.4l167.8-167.8zM672 0h-576c-17.6 0-32 14.4-32 32v832c0 17.6 14.4 32 32 32h352v-208c0-26.6 21.4-48 48-48h208v-608c0-17.6-14.4-32-32-32zM525.4 255.8c9.4-9.4 9.4-24.6 0-34l-11.4-11.4c-9.4-9.4-24.6-9.4-34 0l-96 96.4-96.2-96.2c-9.4-9.4-24.6-9.4-34 0l-11.4 11.4c-9.4 9.4-9.4 24.6 0 34l96.2 96.2-96.2 96.2c-9.4 9.4-9.4 24.6 0 34l11.4 11.4c9.4 9.4 24.6 9.4 34 0l96.2-96.2 96.2 96.2c9.4 9.4 24.6 9.4 34 0l11.4-11.4c9.4-9.4 9.4-24.6 0-34l-96.4-96.4 96.2-96.2z" />
<glyph unicode="&#xe932;" glyph-name="car" d="M241.62 464c-51.92 0-89.6-33.6-89.6-79.9s37.68-79.9 89.6-79.9l20.28-0.2c78.42 0 90.12 40.2 90.12 64.16-0.020 49.36-62.2 95.84-110.4 95.84zM261.9 352c-7.020 0-14.040 0.2-20.28 0.2-24.96 0-41.6 12.76-41.6 31.9s16.64 31.9 41.6 31.9 62.4-28.72 62.4-47.86c0-14.34-21.080-16.14-42.12-16.14zM782.38 464c-48.2 0-110.38-46.48-110.38-95.86 0-23.96 11.7-64.16 90.12-64.16l20.28 0.2c51.92 0 89.6 33.6 89.6 79.9-0.020 46.32-37.7 79.92-89.62 79.92zM782.38 352.2c-6.24 0-13.26-0.2-20.28-0.2-21.060 0-42.12 1.8-42.12 16.14 0 19.14 37.44 47.86 62.4 47.86s41.6-12.76 41.6-31.9-16.64-31.9-41.6-31.9zM1011.98 634.080c-14.68 23.76-40.12 37.94-68.060 37.94h-99.32l-16.14 49.52c-21.46 65.88-82.86 110.46-152.12 110.46h-328.68c-69.28 0-130.66-44.58-152.12-110.44l-16.14-49.52h-99.32c-27.94 0-53.38-14.18-68.060-37.94s-16-52.84-3.5-77.82l11.56-23.22c7.92-15.76 19.84-28.18 34-37.1-13.82-23.48-22.060-50.64-22.060-79.94v-256.020c0-52.94 43.060-96 96-96h32c52.94 0 96 43.060 96 96v32h511.98v-32c0-52.94 43.060-96 96-96h32c52.94 0 96 43.060 96 96v256.020c0 29.32-8.24 56.46-22.060 79.96 14.18 8.92 26.080 21.36 34 37.14l11.56 23.12c12.48 25 11.16 54.1-3.52 77.84zM256.4 701.72c12.92 39.64 49.6 66.28 91.28 66.28h328.66c41.68 0 78.36-26.64 91.28-66.26l40.94-125.7h-593.1l40.94 125.68zM77.34 561.68l-11.56 23.18c-3.62 7.18-0.68 13.28 0.68 15.56 1.74 2.84 5.88 7.6 13.62 7.6h78.48l-12.9-39.64c-17.548-5.45-32.825-13.139-46.511-22.913l0.491 0.333c-9.42 2-17.88 7.040-22.3 15.88zM192.020 160c0-17.66-14.38-32-32-32h-32c-17.62 0-32 14.34-32 32v32h96v-32zM927.98 160c0-17.66-14.38-32-32-32h-32c-17.62 0-32 14.34-32 32v32h96v-32zM927.98 320.020v-64h-831.96v160c0 52.94 43.060 96 96 96h639.96c52.94 0 96-43.060 96-96v-96zM958.22 584.84l-11.56-23.1c-4.42-8.88-12.88-13.94-22.3-15.94-13.88 9.8-29.38 17.52-46.020 22.58l-12.9 39.64h78.48c7.74 0 11.88-4.76 13.62-7.6 1.38-2.28 4.32-8.36 0.68-15.58z" />
<glyph unicode="&#xe933;" glyph-name="couch" horiz-adv-x="1280" d="M1152 572.2v67.4c0 106.2-86 192.4-192 192.4h-640c-106 0-192-86.2-192-192.4v-67.4c-73-15-128-79.6-128-157.2 0-50.2 24.2-97.6 64-127.6v-159.2c0-35.4 28.6-64.2 64-64.2h128c34.6 0 62.6 29.4 63.6 64h640.8c1-34.6 29-64 63.6-64h128c35.4 0 64 28.8 64 64.2v159.2c39.8 30.2 64 77.4 64 127.6 0 77.4-55 142.2-128 157.2zM256 128.2h-128v194.8c-34.2 20-64 42.2-64 92 0 53 43 96.2 96 96.2h64c17.6 0 32-14.4 32-32v-351zM960 192h-640v191h640v-191zM960 479.2v-31.2h-640v31.2c0 53-43 96.2-96 96.2h-32v64.2c0 70.8 57.4 128.2 128 128.2h640c70.6 0 128-57.6 128-128.2v-64.2h-32c-53 0-96-43.2-96-96.2zM1152 323v-194.8h-128v351c0 17.6 14.4 32 32 32h64c53 0 96-43.2 96-96.2 0-47.8-27.8-70.8-64-92z" />
<glyph unicode="&#xe934;" glyph-name="gift" d="M928 640h-78.6c19 26.8 30.6 59.8 30.6 96 0 88.2-66.8 160-149 160-84.6 0-133.6-50.8-219-191.6-85.4 140.8-134.4 191.6-219 191.6-82.2 0-149-71.8-149-160 0-36.2 11.6-69.2 30.6-96h-78.6c-53 0-96-43-96-96v-192c0-17.6 14.4-32 32-32h32v-224c0-53 43-96 96-96h704c53 0 96 43 96 96v224h32c17.6 0 32 14.4 32 32v192c0 53-43 96-96 96zM552.4 647.2c99 166.6 132 184.8 178.6 184.8 46.8 0 85-43 85-96s-38.2-96-85-96h-183l4.4 7.2zM293 832c46.8 0 79.6-18.2 178.6-184.8l4.2-7.2h-183c-46.8 0-85 43-85 96 0.2 53 38.4 96 85.2 96zM384 64h-224c-17.6 0-32 14.4-32 32v224h256v-256zM384 384h-320v160c0 17.6 14.4 32 32 32h288v-192zM576 64h-128v512h128v-512zM896 96c0-17.6-14.4-32-32-32h-224v256h256v-224zM960 384h-320v192h288c17.6 0 32-14.4 32-32v-160z" />
<glyph unicode="&#xe935;" glyph-name="paint-roller" d="M928 832h-96v32c0 53.020-42.98 96-96 96h-640c-53.020 0-96-42.98-96-96v-128c0-53.020 42.98-96 96-96h640c53.020 0 96 42.98 96 96v32h96c17.62 0 32-14.34 32-32v-192c0-17.66-14.38-32-32-32h-416c-52.94 0-96-43.060-96-96v-96h-32c-35.34 0-64-28.66-64-64v-256c0-35.34 28.66-64 64-64h128c35.34 0 64 28.66 64 64v256c0 35.34-28.66 64-64 64h-32v96c0 17.66 14.38 32 32 32h416c52.94 0 96 43.060 96 96v192c0 52.94-43.060 96-96 96zM768 832v-96c0-17.64-14.36-32-32-32h-640c-17.64 0-32 14.36-32 32v128c0 17.64 14.36 32 32 32h640c17.64 0 32-14.36 32-32v-32zM512 0h-128v256h128v-256z" />
<glyph unicode="&#xe936;" glyph-name="bicycle" horiz-adv-x="1280" d="M1024.606 576c-39.172 0.094-76.294-8.626-109.518-24.264l-168.072 265.386c-5.765 8.999-15.713 14.878-27.034 14.878 0 0 0 0 0 0h-135.996c-13.254 0-24-10.746-24-24v-16c0-13.254 10.744-24 24-24h118.386l81.064-128h-271.448v40c0 13.254-10.744 24-24 24h-167.996c-17.672 0-32-14.326-32-32s14.326-32 32-32h111.998l-63.616-89.938c-34.17 16.724-72.606 26.070-113.244 25.936-141.256-0.466-255.132-114.738-255.13-255.998 0.002-141.384 114.614-256 255.994-256 119.282 0 219.51 81.586 247.928 192h104.062c10.801 0.001 20.352 5.352 26.147 13.548l0.067 0.1 201.488 287.848 25.354-40.036c-56.77-46.898-92.974-117.806-93.062-197.174-0.154-139.926 113.686-254.998 253.602-256.276 141.118-1.288 256.202 111.684 258.386 251.99 2.198 141.006-114.34 259.658-255.36 260zM255.994 128c-105.866 0-191.996 86.13-191.996 192s86.128 192 191.996 192c26.614 0 51.978-5.448 75.042-15.278l-133.256-190.37c-14.84-21.198 0.386-50.352 26.214-50.352h213.012c-26.414-74.496-97.576-128-181.012-128zM447.99 320h-162.536l99.488 142.13c38.708-35.15 63.048-85.85 63.048-142.13zM591.326 320h-79.338c0 78.080-34.966 147.984-90.080 194.94l42.742 61.060h305.87l-179.194-256zM1016.392 128.146c-100.116 3.876-181.056 85.354-184.308 185.494-1.922 59.14 23.066 112.606 63.62 149.092l105.518-166.612c7.092-11.198 21.918-14.526 33.116-7.434l13.516 8.562c11.198 7.092 14.526 21.92 7.434 33.116l-105.57 166.692c22.854 9.622 47.944 14.946 74.256 14.946 105.866 0 191.996-86.13 191.996-192 0.002-108.388-90.272-196.086-199.578-191.856z" />
<glyph unicode="&#xe937;" glyph-name="building" horiz-adv-x="896" d="M384 746v-80c0-13.254-10.746-24-24-24h-80c-13.254 0-24 10.746-24 24v80c0 13.254 10.746 24 24 24h80c13.254 0 24-10.746 24-24zM616 770h-80c-13.254 0-24-10.746-24-24v-80c0-13.254 10.746-24 24-24h80c13.254 0 24 10.746 24 24v80c0 13.254-10.746 24-24 24zM360 578h-80c-13.254 0-24-10.746-24-24v-80c0-13.254 10.746-24 24-24h80c13.254 0 24 10.746 24 24v80c0 13.254-10.746 24-24 24zM616 578h-80c-13.254 0-24-10.746-24-24v-80c0-13.254 10.746-24 24-24h80c13.254 0 24 10.746 24 24v80c0 13.254-10.746 24-24 24zM360 386h-80c-13.254 0-24-10.746-24-24v-80c0-13.254 10.746-24 24-24h80c13.254 0 24 10.746 24 24v80c0 13.254-10.746 24-24 24zM616 386h-80c-13.254 0-24-10.746-24-24v-80c0-13.254 10.746-24 24-24h80c13.254 0 24 10.746 24 24v80c0 13.254-10.746 24-24 24zM896-24v-40h-896v40c0 13.254 10.746 24 24 24h40v912c0 26.51 21.49 48 48 48h672c26.51 0 48-21.49 48-48v-912h40c13.254 0 24-10.746 24-24zM768 0v896h-640v-896h256v170c0 13.254 10.746 24 24 24h80c13.254 0 24-10.746 24-24v-170h256z" />
<glyph unicode="&#xe938;" glyph-name="laptop-code" horiz-adv-x="1280" d="M532.68 404.7l22.62 22.62c6.24 6.24 6.24 16.38 0 22.62l-94.060 94.060 94.060 94.060c6.24 6.24 6.24 16.38 0 22.62l-22.62 22.62c-6.24 6.24-16.38 6.24-22.62 0l-128-128c-6.24-6.24-6.24-16.38 0-22.62l128-128c6.26-6.24 16.38-6.24 22.62 0.020zM724.68 427.32l22.62-22.62c6.24-6.24 16.38-6.24 22.62 0l128 128c6.24 6.24 6.24 16.38 0 22.62l-128 128c-6.24 6.24-16.38 6.24-22.62 0l-22.62-22.62c-6.24-6.24-6.24-16.38 0-22.62l94.080-94.080-94.060-94.060c-2.902-2.895-4.698-6.898-4.698-11.32 0-4.412 1.787-8.407 4.678-11.3v0zM1248 224h-96v544c0 70.6-57.44 128-128 128h-768c-70.56 0-128-57.4-128-128v-544h-96c-17.68 0-32-14.32-32-32v-96c0-88.22 71.76-160 160-160h960c88.24 0 160 71.78 160 160v96c0 17.68-14.32 32-32 32zM192 768c0 35.34 28.66 64 64 64h768c35.34 0 64-28.66 64-64v-544h-305.74c-8.12 0-14.040-6.26-15.84-14.18-6.46-28.52-31.96-49.82-62.42-49.82h-128c-30.46 0-55.96 21.3-62.42 49.82-1.8 7.92-7.72 14.18-15.84 14.18h-305.74v544zM1216 96c0-52.94-43.060-96-96-96h-960c-52.94 0-96 43.060-96 96v64h389.5c13.18-37.24 48.76-64 90.5-64h192c41.76 0 77.32 26.76 90.5 64h389.5v-64z" />
<glyph unicode="&#xe939;" glyph-name="medkit" d="M928 768h-224v80c0 26.51-21.49 48-48 48h-288c-26.51 0-48-21.49-48-48v-80h-224c-53.020 0-96-42.98-96-96v-576c0-53.020 42.98-96 96-96h832c53.020 0 96 42.98 96 96v576c0 53.020-42.98 96-96 96zM384 832h256v-64h-256v64zM768 704v-640h-512v640h512zM64 96v576c0 17.644 14.356 32 32 32h96v-640h-96c-17.644 0-32 14.356-32 32zM960 96c0-17.644-14.356-32-32-32h-96v640h96c17.644 0 32-14.356 32-32v-576zM704 416v-64c0-13.254-10.746-24-24-24h-112v-112c0-13.254-10.746-24-24-24h-64c-13.254 0-24 10.746-24 24v112h-112c-13.254 0-24 10.746-24 24v64c0 13.254 10.746 24 24 24h112v112c0 13.254 10.746 24 24 24h64c13.254 0 24-10.746 24-24v-112h112c13.254 0 24-10.746 24-24z" />
<glyph unicode="&#xe93a;" glyph-name="money-bill" horiz-adv-x="1280" d="M1216 832h-1152c-35.34 0-64-28.66-64-64v-640c0-35.34 28.66-64 64-64h1152c35.34 0 64 28.66 64 64v640c0 35.34-28.66 64-64 64zM64 768h128c0-70.6-57.44-128-128-128v128zM1216 320c-105.88 0-192-86.12-192-192h64c0 70.6 57.44 128 128 128v-128h-1152v128c70.56 0 128-57.4 128-128h64c0 105.88-86.12 192-192 192v256c105.88 0 192 86.12 192 192h768c0-105.88 86.12-192 192-192v-256zM1216 640c-70.56 0-128 57.4-128 128h128v-128zM640 672c-106.040 0-192-100.28-192-224 0-123.7 85.96-224 192-224 106 0 192 100.26 192 224 0 123.72-85.96 224-192 224zM640 288c-70.58 0-128 71.78-128 160s57.42 160 128 160 128-71.78 128-160-57.42-160-128-160z" />
<glyph unicode="&#xe93b;" glyph-name="smile" horiz-adv-x="992" d="M496 944c-274 0-496-222-496-496s222-496 496-496 496 222 496 496-222 496-496 496zM496 16c-238.2 0-432 193.8-432 432s193.8 432 432 432 432-193.8 432-432-193.8-432-432-432zM676.4 308.4c-44.8-53.6-110.6-84.4-180.4-84.4s-135.6 30.8-180.4 84.4c-11.4 13.6-31.6 15.4-45 4-13.6-11.4-15.4-31.4-4-45 56.8-68.2 140.6-107.4 229.4-107.4s172.6 39.2 229.6 107.6c11.4 13.6 9.6 33.8-4 45s-33.8 9.4-45.2-4.2zM336 480c35.4 0 64 28.6 64 64s-28.6 64-64 64-64-28.6-64-64 28.6-64 64-64zM656 480c35.4 0 64 28.6 64 64s-28.6 64-64 64-64-28.6-64-64 28.6-64 64-64z" />
<glyph unicode="&#xe93c;" glyph-name="snowflake" horiz-adv-x="896" d="M776.2 293l105.4 28.6c8.4 2.2 13.4 11 11.2 19.6l-8.2 31c-2.2 8.6-11 13.6-19.4 11.4l-166.4-45.2-187.6 109.6 187.6 109.6 166.4-45.2c8.4-2.2 17.2 2.8 19.4 11.4l8.2 31c2.2 8.6-2.8 17.4-11.2 19.6l-105.4 28.6 111.8 65.4c7.6 4.4 10.2 14.2 5.8 21.8l-15.8 27.8c-4.4 7.6-14 10.2-21.6 5.8l-111.8-65.4 28.2 106.6c2.2 8.6-2.8 17.4-11.2 19.6l-30.6 8.2c-8.4 2.2-17.2-2.8-19.4-11.4l-44.6-168.4-187.6-109.6v219.4l122 123.2c6.2 6.2 6.2 16.4 0 22.6l-22.4 22.6c-6.2 6.2-16.2 6.2-22.4 0l-77.2-78v130.8c0 8.8-7 16-15.8 16h-31.6c-8.8 0-15.8-7.2-15.8-16v-130.8l-77.2 78c-6.2 6.2-16.2 6.2-22.4 0l-22.4-22.6c-6.2-6.2-6.2-16.4 0-22.6l121.8-123.4v-219.4l-187.6 109.6-44.2 168.8c-2.2 8.6-11 13.6-19.4 11.4l-30.6-8.2c-8.4-2.2-13.4-11-11.2-19.6l28.2-106.6-111.8 65.4c-7.6 4.4-17.2 1.8-21.6-5.8l-15.8-27.8c-4.4-7.6-1.8-17.4 5.8-21.8l111.8-65.4-105.2-28.8c-8.4-2.2-13.4-11-11.2-19.6l8.2-31c2.2-8.6 11-13.6 19.4-11.4l166.4 45.2 187.6-109.6-187.6-109.6-166.4 45.2c-8.4 2.2-17.2-2.8-19.4-11.4l-8.2-31c-2.2-8.6 2.8-17.4 11.2-19.6l105.4-28.6-111.8-65.2c-7.6-4.4-10.2-14.2-5.8-21.8l15.8-27.8c4.4-7.6 14-10.2 21.6-5.8l111.8 65.4-28.2-106.6c-2.2-8.6 2.8-17.4 11.2-19.6l30.6-8.2c8.4-2.2 17.2 2.8 19.4 11.4l44.6 168.4 187.6 109.6v-219.4l-122-123.4c-6.2-6.2-6.2-16.4 0-22.6l22.4-22.6c6.2-6.2 16.2-6.2 22.4 0l77.2 78v-130.8c0-8.8 7-16 15.8-16h31.6c8.8 0 15.8 7.2 15.8 16v130.8l77.2-78c6.2-6.2 16.2-6.2 22.4 0l22.4 22.6c6.2 6.2 6.2 16.4 0 22.6l-121.8 123.4v219.2l187.6-109.6 44.6-168.4c2.2-8.6 11-13.6 19.4-11.4l30.6 8.2c8.4 2.2 13.4 11 11.2 19.6l-28.2 106.6 111.8-65.4c7.6-4.4 17.2-1.8 21.6 5.8l15.8 27.8c4.4 7.6 1.8 17.4-5.8 21.8l-112.4 65.4z" />
<glyph unicode="&#xe93d;" glyph-name="lightbulb-on" horiz-adv-x="1280" d="M83.6 291.72c-4.819-2.816-8.006-7.965-8.006-13.857 0-2.947 0.797-5.707 2.187-8.078l-0.041 0.075 16-27.72c2.816-4.819 7.965-8.006 13.857-8.006 2.947 0 5.707 0.797 8.078 2.187l-0.075-0.041 198.44 114.56c-13.4 16.94-25.56 34.58-36.020 53.1l-194.42-112.22zM224.66 608h-208.66c-8.84 0-16-7.16-16-16v-32c0-8.84 7.16-16 16-16h213.040c-3.26 21.040-4.34 42.46-4.38 64zM83.6 860.3l170.32-98.34c7.94 20.020 17.44 39.16 28.34 57.54l-166.66 96.22c-2.295 1.349-5.056 2.146-8.003 2.146-5.893 0-11.041-3.186-13.817-7.93l-0.041-0.076-16-27.72c-4.42-7.64-1.8-17.42 5.86-21.84zM1196.4 860.3c4.819 2.816 8.006 7.965 8.006 13.857 0 2.947-0.797 5.707-2.187 8.078l0.041-0.075-16 27.72c-2.816 4.819-7.965 8.006-13.857 8.006-2.947 0-5.707-0.797-8.078-2.187l0.075 0.041-166.76-96.28c10.88-18.34 20.48-37.46 28.48-57.46l170.28 98.3zM1264 608h-208c0-21.6-2.5-42.9-5.8-64h213.8c8.84 0 16 7.16 16 16v32c0 8.84-7.16 16-16 16zM1196.4 291.72l-194.78 112.46c-10.5-18.6-22.9-36.060-36.26-52.96l199.040-114.92c7.66-4.42 17.44-1.8 21.86 5.86l16 27.72c4.42 7.64 1.8 17.42-5.86 21.84zM640 832c-123.5 0-224-100.5-224-224 0-17.68 14.32-32 32-32s32 14.32 32 32c0 88.22 71.76 160 160 160 17.68 0 32 14.32 32 32 0 17.7-14.32 32-32 32zM640 960c-205.9 0-352.24-167.080-352-352.48 0.12-88.56 33-169.34 87.12-231.080 51.3-58.52 100.58-153.82 104.88-184.44l0.12-150.36c0-6.3 1.88-12.44 5.36-17.68l49.020-73.68c5.94-8.92 15.94-14.28 26.64-14.28h157.7c10.72 0 20.72 5.36 26.64 14.28l49.020 73.68c3.48 5.24 5.34 11.4 5.36 17.68l0.14 150.36c4.52 31.44 53.98 126.38 104.88 184.44 54.22 61.86 87.12 142.82 87.12 231.56 0 194.4-157.6 352-352 352zM735.88 51.38l-34.18-51.38h-123.42l-34.18 51.38-0.020 12.62h191.8v-12.62zM735.96 128h-191.94l-0.14 64h192.16l-0.080-64zM856.76 418.64c-27.98-31.92-72.66-96.2-101.16-162.62h-231.18c-28.52 66.44-73.18 130.7-101.16 162.62-46.26 52.76-71 119.68-71.16 189.36-0.36 153.98 120.76 288 287.9 288 158.8 0 288-129.2 288-288 0-69.7-25.3-136.96-71.24-189.36z" />
<glyph unicode="&#xe93e;" glyph-name="file-upload" horiz-adv-x="768" d="M739.8 764.040l-167.76 167.76c-18 18-42.4 28.2-67.78 28.2h-408.28c-52.98-0.2-95.98-43.2-95.98-96.18v-831.84c0-52.98 43-95.98 95.98-95.98h576.040c52.98 0 95.98 43 95.98 95.98v664.080c0 25.38-10.2 49.98-28.2 67.98zM512.060 894.82c5.6-1.4 10.6-4.2 14.8-8.4l167.76-167.76c4.2-4.2 7-9.2 8.4-14.8h-190.96v190.96zM704.020 31.98c0-17.6-14.4-32-32-32h-576.040c-17.6 0-32 14.4-32 32v831.84c0 17.6 14.4 32.18 32 32.18h352.080v-208.14c0-26.6 21.4-47.86 48-47.86h207.96v-608.020zM343.82 526.62l-136.24-143.5c-15.62-16.4-19.88-40.62-10.88-61.66 8.82-20.62 28-33.44 50-33.44h105.3v-176.020c0-8.84 7.16-16 16-16h32c8.84 0 16 7.16 16 16v176.040h105.32c22 0 41.18 12.82 50 33.44 9 21.040 4.76 45.24-10.88 61.62l-136.24 143.56c-21.38 22.38-59.020 22.4-80.38-0.040zM266.32 352.040l117.68 124 117.68-124h-235.36z" />
<glyph unicode="&#xe93f;" glyph-name="exclamation-circle" d="M512 880c237.242 0 432-192.15 432-432 0-238.582-193.22-432-432-432-238.488 0-432 193.124-432 432 0 238.406 193.204 432 432 432zM512 944c-273.914 0-496-222.166-496-496 0-273.994 222.086-496 496-496s496 222.006 496 496c0 273.834-222.086 496-496 496zM489.020 704h45.958c13.646 0 24.548-11.364 23.98-25l-14-336c-0.536-12.856-11.112-23-23.98-23h-17.958c-12.866 0-23.444 10.146-23.98 23l-14 336c-0.566 13.636 10.334 25 23.98 25zM512 280c-30.928 0-56-25.072-56-56s25.072-56 56-56 56 25.072 56 56-25.072 56-56 56z" />
<glyph unicode="&#xe940;" glyph-name="file-html" horiz-adv-x="768" d="M739.882 764.118l-167.764 167.764c-17.373 17.373-41.372 28.118-67.882 28.118h-408.236c-53.020 0-96-42.98-96-96v-832c0-53.020 42.98-96 96-96h576c53.020 0 96 42.98 96 96v664.236c0 26.51-10.745 50.509-28.118 67.882v0zM694.628 718.862c3.983-3.98 6.914-9.011 8.343-14.642l0.047-0.22h-191.018v191.018c5.851-1.475 10.883-4.406 14.862-8.39v0l167.766-167.766zM672 0h-576c-17.674 0-32 14.326-32 32v832c0 17.674 14.326 32 32 32h352v-208c0-26.51 21.49-48 48-48h208v-608c0-17.674-14.326-32-32-32zM349.058 134.808l-51.856 15.054c-4.285 1.273-7.357 5.176-7.357 9.796 0 1.013 0.148 1.992 0.423 2.917l-0.018-0.072 116.054 399.738c1.273 4.285 5.176 7.357 9.796 7.357 1.013 0 1.992-0.148 2.917-0.423l-0.072 0.018 51.854-15.054c4.285-1.273 7.357-5.176 7.357-9.796 0-1.013-0.148-1.992-0.423-2.917l0.018 0.072-116.052-399.738c-1.273-4.285-5.176-7.357-9.796-7.357-1.013 0-1.992 0.148-2.917 0.423l0.072-0.018zM252.166 230.156l36.984 39.448c1.709 1.82 2.759 4.276 2.759 6.977 0 3.045-1.334 5.778-3.45 7.648l-0.011 0.009-76.998 67.762 76.996 67.762c2.127 1.878 3.461 4.612 3.461 7.657 0 2.701-1.050 5.157-2.764 6.982l0.005-0.005-36.984 39.448c-1.866 1.987-4.509 3.225-7.442 3.225-2.701 0-5.157-1.050-6.981-2.764l0.005 0.005-122.526-114.868c-1.986-1.866-3.224-4.509-3.224-7.441s1.237-5.575 3.218-7.436l0.005-0.005 122.526-114.868c1.82-1.71 4.276-2.76 6.978-2.76 2.933 0 5.576 1.238 7.437 3.219l0.005 0.005zM530.252 229.692l122.524 114.868c1.986 1.866 3.224 4.509 3.224 7.441s-1.237 5.575-3.218 7.436l-0.005 0.005-122.524 114.868c-1.819 1.709-4.275 2.759-6.976 2.759-2.933 0-5.576-1.238-7.437-3.219l-0.005-0.005-36.984-39.448c-1.709-1.82-2.759-4.276-2.759-6.977 0-3.045 1.334-5.778 3.45-7.648l0.011-0.009 76.998-67.762-76.998-67.762c-2.127-1.878-3.461-4.612-3.461-7.657 0-2.701 1.050-5.157 2.764-6.982l-0.005 0.005 36.984-39.448c1.866-1.986 4.509-3.223 7.441-3.223 2.701 0 5.158 1.050 6.982 2.764l-0.005-0.005z" />
<glyph unicode="&#xe941;" glyph-name="file-csv" horiz-adv-x="768" d="M739.8 764.040l-167.76 167.76c-18 18-42.4 28.2-67.78 28.2h-408.28c-52.98-0.2-95.98-43.2-95.98-96.18v-831.84c0-52.98 43-95.98 95.98-95.98h576.040c52.98 0 95.98 43 95.98 95.98v664.080c0 25.38-10.2 49.98-28.2 67.98zM512.060 894.82c5.6-1.4 10.6-4.2 14.8-8.4l167.76-167.76c4.2-4.2 7-9.2 8.4-14.8h-190.96v190.96zM704.020 31.98c0-17.6-14.4-32-32-32h-576.040c-17.6 0-32 14.4-32 32v831.84c0 17.6 14.4 32.18 32 32.18h352.080v-208.14c0-26.6 21.4-47.86 48-47.86h207.96v-608.020zM240 448h-16c-53.020 0-96-42.98-96-96v-64c0-53.020 42.98-96 96-96h16c8.84 0 16 7.16 16 16v32c0 8.84-7.16 16-16 16h-16c-17.68 0-32 14.32-32 32v64c0 17.68 14.32 32 32 32h16c8.84 0 16 7.16 16 16v32c0 8.84-7.16 16-16 16zM464 448c-8.84 0-16-7.16-16-16v-41.6c0-70.96 25.76-137.78 72.56-188.18 6.040-6.5 14.54-10.22 23.44-10.22s17.4 3.72 23.44 10.22c46.82 50.4 72.56 117.22 72.56 188.18v41.6c0 8.84-7.16 16-16 16h-32c-8.84 0-16-7.16-16-16v-41.6c0-40.54-11.4-80.34-32-113.76-20.6 33.4-32 73.22-32 113.76v41.6c0 8.84-7.16 16-16 16h-32zM358.9 363.060c-2.76 2.38-4.24 5.1-4.24 7.68 0 6.24 8.9 13.24 20.82 13.24h24.52c8.84 0 16 7.16 16 16v32c0 8.84-7.16 16-16 16h-24.54c-46.78 0-84.82-34.66-84.82-77.24 0-21.32 9.72-41.84 26.66-56.28l43.78-37.54c2.76-2.38 4.24-5.1 4.24-7.68 0-6.24-8.9-13.24-20.82-13.24h-24.5c-8.84 0-16-7.16-16-16v-32c0-8.84 7.16-16 16-16h24.54c46.78 0 84.82 34.66 84.82 77.24 0 21.32-9.72 41.84-26.66 56.28l-43.8 37.54z" />
<glyph unicode="&#xe942;" glyph-name="thumbs-up" d="M993.312 388.634c19.854 25.748 30.688 59.366 30.688 100.43-0.002 75.348-64.146 145.142-145.454 145.142h-140.3c17.44 34.736 41.39 77.822 41.39 139.634 0.002 116.816-46.6 186.16-165.816 186.16-59.99 0-82.252-75.836-93.658-134.456-6.814-35.022-13.252-68.104-33.050-87.902-47.14-47.142-119.112-161.642-162.348-184.892-4.378-1.844-9.972-3.296-16.064-4.446-11.546 16.728-30.838 27.696-52.7 27.696h-192c-35.346 0-64-28.654-64-64v-512c0-35.346 28.654-64 64-64h192c35.346 0 64 28.654 64 64v17.48c64.99 0 201.374-81.494 354.91-81.452 11.010-0.006 75.3-0.060 82.026 0 118.564-0.028 184.51 71.774 180.67 179.586 30.254 35.454 45.078 86.674 36.45 134.21 24.912 39.052 30.252 94.14 19.256 138.81zM64 0v512h192v-512h-192zM912.034 407.296c31.966-23.296 31.966-119.296-11.214-141.33 27.044-45.52 2.704-106.432-30.030-123.992 16.586-105.080-37.922-141.212-114.424-141.948-6.624-0.060-74.494 0-81.454 0-145.858 0-269.484 81.454-354.91 81.454v407.27c75.416 0 144.61 135.878 212.366 203.636 61.090 61.090 40.726 162.908 81.454 203.634 101.818 0 101.818-71.034 101.818-122.182 0-84.378-61.090-122.18-61.090-203.634h223.998c45.46 0 81.254-40.728 81.454-81.454 0.198-40.726-16.002-72.75-47.968-81.454zM208 96c0-26.51-21.49-48-48-48s-48 21.49-48 48 21.49 48 48 48 48-21.49 48-48z" />
<glyph unicode="&#xe943;" glyph-name="trade" d="M733.867-64c-157.867 0-290.133 128-290.133 290.133s128 290.133 290.133 290.133 290.133-128 290.133-290.133-128-290.133-290.133-290.133zM733.867 448c-123.733 0-221.867-102.4-221.867-221.867s102.4-221.867 221.867-221.867 221.867 102.4 221.867 221.867-98.133 221.867-221.867 221.867zM379.733-46.933c-4.267 0-4.267 0-8.533 0-12.8 4.267-21.333 8.533-34.133 12.8-17.067 8.533-25.6 25.6-17.067 42.667s25.6 25.6 42.667 17.067c8.533-4.267 17.067-4.267 25.6-8.533 17.067-4.267 25.6-21.333 21.333-38.4 0-12.8-12.8-25.6-29.867-25.6zM187.733 64c-8.533 0-17.067 4.267-21.333 8.533l-21.333 21.333c-12.8 12.8-12.8 34.133 0 46.933s34.133 12.8 46.933 0l21.333-21.333c12.8-12.8 12.8-34.133 0-46.933-8.533-4.267-17.067-8.533-25.6-8.533zM699.733 89.6c-17.067 0-34.133 8.533-46.933 17.067l-64 64c-12.8 12.8-12.8 34.133 0 46.933s34.133 12.8 46.933 0l64-64 123.733 166.4c8.533 12.8 29.867 17.067 42.667 4.267 12.8-8.533 17.067-29.867 4.267-42.667l-123.733-166.4c-12.8-12.8-29.867-25.6-46.933-25.6 4.267 0 4.267 0 0 0zM64 247.467c-12.8 0-25.6 8.533-29.867 21.333s-8.533 21.333-12.8 34.133c-4.267 17.067 4.267 34.133 21.333 38.4s34.133-4.267 38.4-21.333c4.267-8.533 4.267-17.067 8.533-29.867 4.267-17.067 0-34.133-17.067-42.667 0 0-4.267 0-8.533 0zM285.867 384c-157.867 0-285.867 128-285.867 285.867s128 290.133 285.867 290.133 290.133-128 290.133-290.133-132.267-285.867-290.133-285.867zM285.867 896c-123.733 0-221.867-102.4-221.867-221.867s98.133-226.133 221.867-226.133 226.133 102.4 226.133 221.867-102.4 226.133-226.133 226.133zM285.867 482.133c-17.067 0-34.133 12.8-34.133 34.133h-29.867c-17.067 0-34.133 12.8-34.133 34.133s17.067 25.6 34.133 25.6h85.333c0 0 0 0 0 0 12.8 0 21.333 8.533 25.6 21.333s-4.267 21.333-12.8 25.6l-89.6 38.4c-38.4 12.8-64 55.467-55.467 98.133 8.533 38.4 42.667 68.267 81.067 72.533v0c0 17.067 12.8 34.133 34.133 34.133s29.867-17.067 29.867-34.133h34.133c12.8 0 29.867-12.8 29.867-34.133s-17.067-29.867-34.133-29.867h-85.333c-12.8 0-21.333-8.533-25.6-21.333s4.267-21.333 17.067-25.6l85.333-38.4c42.667-12.8 64-55.467 55.467-98.133-8.533-38.4-38.4-68.267-76.8-72.533v0c0-17.067-17.067-29.867-34.133-29.867zM942.933 627.2c-12.8 0-21.333 8.533-29.867 17.067-4.267 8.533-8.533 17.067-12.8 25.6-8.533 17.067-4.267 34.133 12.8 42.667s34.133 4.267 42.667-12.8c4.267-8.533 12.8-21.333 17.067-29.867 8.533-17.067 0-34.133-12.8-42.667-8.533 4.267-12.8 0-17.067 0zM797.867 797.867c-4.267 0-12.8 0-17.067 4.267l-25.6 17.067c-12.8 8.533-17.067 29.867-8.533 42.667s29.867 17.067 42.667 8.533l25.6-17.067c12.8-8.533 17.067-29.867 8.533-42.667-4.267-8.533-12.8-12.8-25.6-12.8zM597.333 887.467c0 0-4.267 0-4.267 0-8.533 0-21.333 4.267-29.867 4.267-17.067 0-29.867 17.067-29.867 34.133s17.067 29.867 34.133 29.867c12.8 0 21.333-4.267 34.133-4.267 17.067-4.267 29.867-21.333 25.6-38.4 0-12.8-17.067-25.6-29.867-25.6z" />
<glyph unicode="&#xe944;" glyph-name="slice-in-12" d="M661.333-55.467c-179.2 0-328.533 136.533-349.867 311.467 0 0 0 0-4.267 0h-213.333c-51.2 0-93.867 42.667-93.867 93.867v512c0 55.467 42.667 98.133 93.867 98.133h704c55.467 0 98.133-42.667 98.133-93.867v-256c0-12.8-8.533-25.6-21.333-29.867 85.333-64 136.533-166.4 136.533-277.333 4.267-196.267-157.867-358.4-349.867-358.4zM661.333 584.533c-157.867 0-290.133-128-290.133-290.133 0-157.867 128-290.133 290.133-290.133 157.867 0 290.133 128 290.133 290.133-4.267 162.133-132.267 290.133-290.133 290.133zM64 704v-349.867c0-17.067 12.8-34.133 34.133-34.133h213.333c0 0 0 0 0 0 4.267 85.333 42.667 166.4 98.133 221.867h-247.467c-21.333 0-34.133 17.067-34.133 34.133s12.8 34.133 34.133 34.133h256c17.067 0 29.867-12.8 29.867-29.867 59.733 46.933 132.267 72.533 213.333 72.533 64 0 119.467-17.067 170.667-42.667 0 0 0 0 0 0v93.867h-768zM64 768h768v98.133c0 17.067-12.8 34.133-34.133 34.133h-704c-17.067 0-34.133-12.8-34.133-34.133v-98.133zM290.133 413.867h-128c-21.333 0-34.133 17.067-34.133 34.133s12.8 34.133 34.133 34.133h128c17.067 0 34.133-12.8 34.133-34.133s-17.067-34.133-34.133-34.133zM729.6 469.333c29.867 0 55.467-8.533 76.8-25.6 17.067-17.067 29.867-38.4 29.867-64 0-17.067-4.267-29.867-8.533-42.667s-12.8-29.867-25.6-42.667-34.133-34.133-59.733-59.733v0l-59.733-55.467v-4.267h157.867v-46.933h-226.133v42.667l93.867 93.867c21.333 21.333 34.133 38.4 42.667 46.933 8.533 12.8 12.8 21.333 17.067 29.867s4.267 21.333 4.267 29.867c0 17.067-4.267 25.6-12.8 34.133s-21.333 12.8-38.4 12.8c-12.8 0-25.6-4.267-38.4-8.533s-25.6-12.8-42.667-25.6v0l-29.867 34.133 8.533 8.533c17.067 12.8 29.867 21.333 46.933 25.6 25.6 12.8 42.667 17.067 64 17.067zM593.067 465.067v-337.067h-55.467v217.6c0 25.6 0 46.933 0 59.733-4.267-4.267-8.533-8.533-12.8-12.8s-21.333-17.067-51.2-42.667v0l-25.6 34.133 98.133 76.8h46.933z" />
<glyph unicode="&#xe945;" glyph-name="slice-in-3" d="M661.333-55.467c-179.2 0-328.533 136.533-349.867 311.467 0 0 0 0-4.267 0h-213.333c-51.2 0-93.867 42.667-93.867 93.867v512c0 55.467 42.667 98.133 93.867 98.133h704c55.467 0 98.133-42.667 98.133-93.867v-256c0-12.8-8.533-25.6-21.333-29.867 85.333-64 136.533-166.4 136.533-277.333 4.267-196.267-157.867-358.4-349.867-358.4zM661.333 584.533c-157.867 0-290.133-128-290.133-290.133 0-157.867 128-290.133 290.133-290.133 157.867 0 290.133 128 290.133 290.133-4.267 162.133-132.267 290.133-290.133 290.133zM64 704v-349.867c0-17.067 12.8-34.133 34.133-34.133h213.333c0 0 0 0 0 0 4.267 85.333 42.667 166.4 98.133 221.867h-247.467c-21.333 0-34.133 17.067-34.133 34.133s12.8 34.133 34.133 34.133h256c17.067 0 29.867-12.8 29.867-29.867 59.733 46.933 132.267 72.533 213.333 72.533 64 0 119.467-17.067 170.667-42.667 0 0 0 0 0 0v93.867h-768zM64 768h768v98.133c0 17.067-12.8 34.133-34.133 34.133h-704c-17.067 0-34.133-12.8-34.133-34.133v-98.133zM290.133 413.867h-128c-21.333 0-34.133 17.067-34.133 34.133s12.8 34.133 34.133 34.133h128c17.067 0 34.133-12.8 34.133-34.133s-17.067-34.133-34.133-34.133zM648.533 128c42.667 0 72.533 8.533 98.133 25.6 21.333 17.067 34.133 42.667 34.133 72.533 0 21.333-8.533 38.4-21.333 51.2s-34.133 21.333-59.733 25.6v0 0c21.333 4.267 38.4 12.8 51.2 29.867 12.8 12.8 17.067 29.867 17.067 51.2 0 25.6-8.533 46.933-29.867 59.733s-46.933 21.333-76.8 21.333c-38.4 0-76.8-12.8-106.667-34.133v0l25.6-38.4c17.067 8.533 29.867 17.067 42.667 21.333s25.6 4.267 38.4 4.267c17.067 0 29.867-4.267 42.667-12.8 8.533-8.533 12.8-17.067 12.8-34.133 0-38.4-25.6-55.467-81.067-55.467v0h-29.867v-42.667h29.867c29.867 0 51.2-4.267 68.267-12.8 12.8-8.533 21.333-21.333 21.333-38.4 0-21.333-4.267-34.133-17.067-42.667s-29.867-12.8-59.733-12.8c-12.8 0-29.867 0-46.933 4.267s-29.867 8.533-42.667 17.067v0-46.933c21.333-8.533 51.2-12.8 89.6-12.8z" />
<glyph unicode="&#xe946;" glyph-name="sales" d="M686.933-64c-17.067 0-34.133 12.8-34.133 34.133v42.667c0 38.4 17.067 72.533 46.933 93.867l93.867 76.8c12.8 8.533 21.333 25.6 21.333 42.667v192c0 17.067-12.8 29.867-29.867 29.867-21.333 0-29.867-29.867-34.133-38.4l-12.8-85.333c-4.267-34.133-25.6-68.267-55.467-85.333l-68.267-38.4c-17.067-8.533-25.6-25.6-25.6-46.933v-55.467c0-17.067-12.8-34.133-34.133-34.133s-34.133 12.8-34.133 34.133v55.467c0 42.667 21.333 81.067 55.467 102.4l68.267 38.4c12.8 8.533 21.333 21.333 25.6 38.4l12.8 89.6c8.533 42.667 38.4 89.6 98.133 89.6 51.2 0 93.867-42.667 93.867-93.867v-192c0-38.4-17.067-72.533-46.933-93.867l-93.867-76.8c-12.8-12.8-21.333-25.6-21.333-42.667v-42.667c4.267-21.333-8.533-34.133-25.6-34.133zM302.933-64c-17.067 0-34.133 12.8-34.133 34.133v93.867l-29.867 42.667c-8.533 12.8-8.533 34.133 8.533 42.667 12.8 8.533 34.133 8.533 42.667-8.533l38.4-51.2c4.267-4.267 4.267-12.8 4.267-17.067v-106.667c4.267-17.067-12.8-29.867-29.867-29.867zM337.067 192h-226.133c-51.2 0-93.867 42.667-93.867 93.867v354.133c0 51.2 42.667 93.867 93.867 93.867h64v25.6c0 51.2 42.667 93.867 93.867 93.867 17.067 0 29.867-4.267 42.667-8.533 17.067 29.867 46.933 51.2 85.333 51.2 12.8 0 25.6-4.267 34.133-8.533 17.067 42.667 55.467 72.533 98.133 72.533s81.067-29.867 93.867-68.267c12.8 4.267 21.333 8.533 34.133 8.533 51.2 0 93.867-42.667 93.867-93.867v-64h162.133c51.2 0 93.867-42.667 93.867-93.867v-375.467c0-17.067-12.8-34.133-34.133-34.133s-34.133 12.8-34.133 34.133v366.933c0 17.067-12.8 34.133-34.133 34.133h-422.4c17.067 0 34.133-12.8 34.133-34.133v-17.067c34.133-4.267 59.733-21.333 76.8-46.933 12.8-12.8 8.533-34.133-4.267-46.933s-34.133-8.533-46.933 4.267c-12.8 17.067-34.133 25.6-51.2 25.6 0 0 0 0 0 0-34.133 0-55.467-17.067-55.467-34.133s21.333-34.133 55.467-34.133c68.267 0 119.467-42.667 119.467-98.133 0-46.933-38.4-85.333-89.6-93.867v-17.067c0-17.067-12.8-34.133-34.133-34.133s-34.133 12.8-34.133 34.133v17.067c-25.6 12.8-51.2 25.6-68.267 51.2-12.8 12.8-8.533 34.133 4.267 46.933s34.133 8.533 46.933-4.267c12.8-17.067 34.133-25.6 51.2-25.6 0 0 0 0 0 0 34.133 0 55.467 17.067 55.467 34.133s-21.333 34.133-55.467 34.133c-68.267 0-119.467 42.667-119.467 98.133 0 46.933 38.4 85.333 89.6 93.867v12.8c0 17.067 12.8 34.133 34.133 34.133h-379.733c-17.067 0-34.133-12.8-34.133-34.133v-349.867c0-17.067 12.8-34.133 34.133-34.133h221.867c17.067 0 34.133-12.8 34.133-34.133s-12.8-29.867-29.867-29.867zM622.933 738.133h64v64c0 17.067-12.8 34.133-34.133 34.133s-34.133-12.8-34.133-34.133v-64zM494.933 738.133h64v128c0 17.067-12.8 34.133-34.133 34.133s-34.133-12.8-34.133-34.133v-128zM366.933 738.133h64v64c0 17.067-12.8 29.867-29.867 29.867s-34.133-12.8-34.133-29.867v-64zM238.933 738.133h64v21.333c0 17.067-12.8 29.867-29.867 29.867s-34.133-12.8-34.133-29.867v-21.333z" />
<glyph unicode="&#xe947;" glyph-name="retail" d="M861.867-64h-699.733c-51.2 0-93.867 42.667-93.867 93.867v384c0 17.067 12.8 34.133 34.133 34.133s25.6-12.8 25.6-34.133v-384c0-17.067 12.8-34.133 34.133-34.133h349.867v256c0 89.6 72.533 162.133 162.133 162.133s162.133-72.533 162.133-162.133v-256h34.133c17.067 0 34.133 12.8 34.133 34.133v384c0 17.067 12.8 34.133 34.133 34.133s34.133-12.8 34.133-34.133v-384c-12.8-51.2-55.467-93.867-110.933-93.867zM576 0h192v256c0 51.2-42.667 93.867-93.867 93.867s-93.867-42.667-93.867-93.867v-256zM384 64h-128c-34.133 0-64 29.867-64 64v128c0 34.133 29.867 64 64 64h128c34.133 0 64-29.867 64-64v-128c0-34.133-29.867-64-64-64zM256 256v-128h128v128h-128zM256 285.867v-34.133c0 0 0 0 0 0v34.133zM686.933 128c-25.6 0-46.933 21.333-46.933 46.933s21.333 46.933 46.933 46.933 46.933-21.333 46.933-46.933-21.333-46.933-46.933-46.933zM686.933 192c-8.533 0-17.067-8.533-17.067-17.067s8.533-17.067 17.067-17.067 17.067 8.533 17.067 17.067-8.533 17.067-17.067 17.067zM896 512c-38.4 0-72.533 17.067-93.867 42.667-21.333-25.6-59.733-42.667-93.867-42.667s-72.533 17.067-93.867 42.667c-21.333-25.6-59.733-42.667-93.867-42.667s-72.533 17.067-93.867 42.667c-25.6-25.6-59.733-42.667-93.867-42.667s-72.533 17.067-93.867 42.667c-25.6-25.6-59.733-42.667-93.867-42.667-72.533 0-128 55.467-128 128 0 4.267 0 4.267 0 8.533l59.733 264.533c-12.8 25.6 12.8 46.933 46.933 46.933h780.8c0 0 0 0 0 0 29.867 0 55.467-21.333 64-51.2l55.467-260.267c0-4.267 0-4.267 0-8.533 0-72.533-55.467-128-128-128zM802.133 669.867c17.067 0 34.133-12.8 34.133-34.133-4.267-29.867 25.6-59.733 59.733-59.733s64 25.6 64 59.733l-59.733 260.267h-776.533l-59.733-260.267c0-34.133 29.867-59.733 64-59.733s64 29.867 64 64c0 17.067 12.8 34.133 34.133 34.133s29.867-17.067 29.867-34.133c0-34.133 29.867-64 64-64s64 29.867 64 64c0 17.067 12.8 34.133 34.133 34.133s34.133-12.8 34.133-34.133c-4.267-34.133 25.6-64 59.733-64s64 29.867 64 64c0 17.067 12.8 34.133 34.133 34.133s29.867-17.067 29.867-34.133c0-34.133 29.867-64 64-64s64 29.867 64 64c0 17.067 12.8 29.867 34.133 29.867zM900.267 896v0 0z" />
<glyph unicode="&#xe948;" glyph-name="puzzle" d="M832-64c-81.067 0-153.6 51.2-179.2 128l-98.133-98.133c-34.133-34.133-98.133-34.133-136.533 0l-89.6 89.6c-8.533 8.533-12.8 17.067-8.533 29.867 0 8.533 8.533 17.067 17.067 21.333 51.2 21.333 85.333 76.8 76.8 136.533-8.533 55.467-51.2 102.4-110.933 110.933-55.467 8.533-110.933-25.6-136.533-76.8-4.267-8.533-12.8-17.067-21.333-17.067s-21.333 0-29.867 8.533l-89.6 89.6c-17.067 17.067-29.867 42.667-29.867 68.267 4.267 21.333 12.8 42.667 34.133 64l98.133 98.133c-76.8 25.6-128 98.133-128 179.2 0 106.667 85.333 192 192 192 81.067 0 153.6-51.2 179.2-128l98.133 98.133c38.4 38.4 98.133 34.133 136.533 0l89.6-89.6c8.533-8.533 12.8-17.067 8.533-29.867 0-8.533-8.533-17.067-17.067-21.333-51.2-21.333-85.333-76.8-76.8-136.533 8.533-55.467 51.2-102.4 110.933-110.933 55.467-8.533 110.933 25.6 136.533 76.8 4.267 8.533 12.8 17.067 21.333 17.067s21.333 0 29.867-8.533l89.6-89.6c17.067-17.067 29.867-42.667 29.867-68.267s-8.533-51.2-29.867-68.267l-102.4-93.867c72.533-25.6 128-98.133 128-179.2 0-106.667-85.333-192-192-192zM674.133 157.867c4.267 0 8.533 0 12.8-4.267 12.8-4.267 21.333-17.067 21.333-29.867 0-72.533 55.467-128 128-128s128 55.467 128 128-55.467 128-128 128c-12.8 0-25.6 8.533-29.867 21.333s-4.267 25.6 8.533 34.133l140.8 140.8c4.267 4.267 8.533 12.8 8.533 21.333s-4.267 17.067-8.533 21.333l-59.733 59.733c-42.667-55.467-110.933-85.333-179.2-76.8-85.333 12.8-153.6 81.067-166.4 166.4-8.533 68.267 21.333 140.8 76.8 179.2l-59.733 59.733c-12.8 12.8-34.133 12.8-46.933 0l-145.067-132.267c-8.533-8.533-25.6-12.8-34.133-8.533s-21.333 17.067-21.333 29.867c0 72.533-55.467 128-128 128s-128-55.467-128-128 55.467-128 128-128c12.8 0 25.6-8.533 29.867-21.333s0-25.6-8.533-34.133l-140.8-140.8c-4.267-4.267-8.533-12.8-8.533-21.333s4.267-17.067 8.533-21.333l59.733-59.733c42.667 55.467 110.933 85.333 179.2 76.8 85.333-12.8 153.6-81.067 166.4-166.4 8.533-68.267-21.333-140.8-76.8-179.2l59.733-59.733c12.8-12.8 34.133-12.8 46.933 0l140.8 140.8c8.533 4.267 17.067 4.267 25.6 4.267z" />
<glyph unicode="&#xe949;" glyph-name="magento" d="M503.467-64c-4.267 0-12.8 0-17.067 4.267l-179.2 119.467c-8.533 4.267-12.8 17.067-12.8 25.6v426.667c0 12.8 4.267 21.333 17.067 25.6l119.467 81.067c8.533 4.267 21.333 4.267 34.133 0 8.533-4.267 17.067-17.067 17.067-29.867v-422.4l25.6-17.067 38.4 21.333v418.133c0 12.8 4.267 21.333 17.067 29.867 8.533 4.267 21.333 4.267 34.133 0l123.733-76.8c8.533-4.267 17.067-17.067 17.067-25.6v-426.667c0-12.8-4.267-21.333-17.067-25.6l-196.267-119.467c-8.533-8.533-17.067-8.533-21.333-8.533zM358.4 102.4l149.333-98.133 162.133 98.133v392.533l-64 38.4v-384c0-12.8-4.267-21.333-17.067-29.867l-72.533-38.4c-12.8-4.267-25.6-4.267-34.133 0l-55.467 38.4c-8.533 4.267-12.8 17.067-12.8 25.6v384l-59.733-38.4v-388.267zM576 149.333v0 0zM819.2 128c-4.267 0-8.533 0-17.067 4.267s-17.067 17.067-17.067 29.867v409.6l-273.067 174.933-277.333-174.933v-413.867c0-12.8-8.533-21.333-17.067-29.867-8.533-4.267-21.333-4.267-34.133 0l-119.467 81.067c-8.533 4.267-12.8 17.067-12.8 25.6v439.467c0 12.8 4.267 21.333 17.067 25.6l426.667 256c8.533 4.267 21.333 4.267 34.133 0l426.667-256c8.533-4.267 17.067-17.067 17.067-25.6v-435.2c0-12.8-4.267-21.333-12.8-25.6l-119.467-81.067c-8.533-4.267-12.8-4.267-21.333-4.267zM512 819.2c4.267 0 12.8 0 17.067-4.267l307.2-196.267c12.8-8.533 17.067-17.067 17.067-29.867v-371.2l55.467 38.4v401.067l-396.8 234.667-396.8-234.667v-401.067l55.467-38.4v371.2c0 12.8 4.267 21.333 17.067 29.867l307.2 196.267c4.267 0 12.8 4.267 17.067 4.267z" />
<glyph unicode="&#xe94a;" glyph-name="growth" d="M989.867-64h-955.733c-21.333 0-34.133 12.8-34.133 34.133s12.8 34.133 34.133 34.133h34.133v187.733c0 34.133 29.867 64 64 64h128c34.133 0 64-29.867 64-64v-192h59.733v384c0 34.133 29.867 64 64 64h128c34.133 0 64-29.867 64-64v-384h64v512c0 34.133 29.867 64 64 64h128c34.133 0 64-29.867 64-64v-512h34.133c17.067 0 34.133-12.8 34.133-34.133s-17.067-29.867-38.4-29.867zM768 0h128v512h-128v-512zM448 0h128v384h-128v-384zM128 0h128v192h-128v-192zM179.2 533.333c-12.8 0-25.6 8.533-29.867 17.067-8.533 17.067 0 34.133 17.067 42.667l614.4 281.6-64 25.6c-17.067 4.267-25.6 25.6-17.067 42.667 4.267 17.067 25.6 25.6 42.667 17.067l136.533-51.2c8.533-4.267 12.8-8.533 17.067-17.067v0c0 0 0 0 0 0s0 0 0 0 0 0 0 0 0 0 0 0c0-8.533 0-17.067 0-25.6l-51.2-136.533c-4.267-17.067-25.6-25.6-42.667-17.067-17.067 4.267-25.6 25.6-17.067 42.667l25.6 64-618.667-281.6c-4.267-4.267-8.533-4.267-12.8-4.267z" />
<glyph unicode="&#xe94b;" glyph-name="e-pos" d="M704-64h-384c-17.067 0-34.133 12.8-34.133 34.133s12.8 34.133 34.133 34.133h162.133v128h-384c-51.2 0-93.867 42.667-93.867 93.867v512c-4.267 51.2 38.4 93.867 89.6 93.867h64c17.067 0 34.133-12.8 34.133-34.133s-12.8-29.867-29.867-29.867h-68.267c-17.067 0-34.133-12.8-34.133-34.133v-384h896v384c0 17.067-12.8 34.133-34.133 34.133h-93.867c-17.067 0-34.133 12.8-34.133 34.133s21.333 29.867 38.4 29.867h93.867c55.467 0 98.133-42.667 98.133-93.867v-512c0-51.2-42.667-93.867-93.867-93.867h-384v-128h162.133c17.067 0 34.133-12.8 34.133-34.133s-21.333-34.133-38.4-34.133zM512 192h418.133c17.067 0 34.133 12.8 34.133 34.133v64h-896v-64c0-17.067 12.8-34.133 34.133-34.133h409.6zM605.867 448c-25.6 0-46.933 21.333-46.933 46.933s21.333 46.933 46.933 46.933 46.933-21.333 46.933-46.933-17.067-46.933-46.933-46.933zM605.867 512c-8.533 0-17.067-8.533-17.067-17.067s8.533-17.067 17.067-17.067 17.067 8.533 17.067 17.067-4.267 17.067-17.067 17.067zM384 448c-25.6 0-46.933 21.333-46.933 46.933s21.333 46.933 46.933 46.933 46.933-21.333 46.933-46.933-21.333-46.933-46.933-46.933zM384 512c-8.533 0-17.067-8.533-17.067-17.067s8.533-17.067 17.067-17.067 17.067 8.533 17.067 17.067-8.533 17.067-17.067 17.067zM622.933 576h-256c-12.8 0-25.6 8.533-29.867 21.333l-64 192c-4.267 8.533 0 21.333 4.267 29.867 8.533 8.533 17.067 12.8 25.6 12.8h354.133l29.867 106.667c4.267 17.067 21.333 25.6 38.4 21.333s25.6-21.333 21.333-38.4l-93.867-320c-4.267-17.067-12.8-25.6-29.867-25.6zM392.533 640h209.067l38.4 128h-290.133l42.667-128z" />
<glyph unicode="&#xe94c;" glyph-name="custom-module" d="M768-64c0 0 0 0 0 0v0c0 0 0 0 0 0s0 0 0 0 0 0 0 0c-4.267 0-12.8 0-17.067 4.267l-221.867 128c-8.533 4.267-17.067 17.067-17.067 29.867v221.867c0 0 0 0 0 0v0c0 0 0 0 0 0s0 0 0 0 0 0 0 0v0 0c0 8.533 4.267 17.067 8.533 21.333 0 0 4.267 4.267 4.267 4.267s0 0 0 0 0 0 0 0 4.267 4.267 4.267 4.267l221.867 128c8.533 4.267 21.333 4.267 29.867 0l221.867-128c0 0 4.267-4.267 4.267-4.267s0 0 0 0v0c0 0 4.267-4.267 4.267-4.267 4.267-4.267 8.533-12.8 8.533-21.333v0 0c0 0 0 0 0 0s0 0 0 0 0 0 0 0v0c0 0 0 0 0 0v-221.867c0-12.8-4.267-21.333-17.067-29.867l-221.867-128c0-4.267-8.533-4.267-12.8-4.267 0 0 0 0 0 0s0 0 0 0 0 0 0 0v0c0 0 0 0 0 0zM802.133 174.933v-153.6l162.133 89.6v149.333l-162.133-85.333zM576 115.2l162.133-89.6v149.333l-162.133 89.6v-149.333zM610.133 320l157.867-89.6 157.867 89.6-157.867 89.6-157.867-89.6zM256-64c-4.267 0-12.8 0-17.067 4.267l-221.867 128c-12.8 4.267-17.067 17.067-17.067 29.867v221.867c0 0 0 0 0 0v0c0 0 0 0 0 0s0 0 0 0 0 0 0 0v0 0c0 8.533 4.267 17.067 8.533 21.333 0 0 4.267 4.267 4.267 4.267s0 0 0 0 0 0 0 0 4.267 4.267 4.267 4.267l221.867 128c8.533 4.267 21.333 4.267 29.867 0l162.133-89.6c17.067-8.533 21.333-29.867 12.8-42.667-8.533-17.067-29.867-21.333-42.667-12.8l-145.067 76.8-157.867-89.6 157.867-89.6 110.933 64c17.067 8.533 34.133 4.267 42.667-12.8s4.267-34.133-12.8-42.667l-110.933-64v-153.6l110.933 64c17.067 8.533 34.133 4.267 42.667-12.8s4.267-34.133-12.8-42.667l-157.867-89.6c0-4.267-8.533-4.267-12.8-4.267zM64 115.2l157.867-93.867v149.333l-162.133 89.6v-145.067zM512 413.867c0 0 0 0 0 0s0 0 0 0 0 0 0 0c-4.267 0-12.8 0-17.067 4.267l-221.867 128c-12.8 8.533-17.067 17.067-17.067 29.867v221.867c0 0 0 0 0 0s0 0 0 0 0 0 0 0 0 0 0 0v0c0 8.533 4.267 17.067 8.533 21.333 0 0 4.267 4.267 4.267 4.267s0 0 0 0v0c0 0 4.267 4.267 4.267 4.267l221.867 128c8.533 4.267 21.333 4.267 29.867 0l221.867-128c0 0 4.267-4.267 4.267-4.267s0 0 0 0v0c0 0 4.267-4.267 4.267-4.267 8.533-4.267 12.8-12.8 12.8-17.067v0c0 0 0 0 0 0s0 0 0 0 0 0 0 0 0 0 0 0v-226.133c0-12.8-4.267-21.333-17.067-29.867l-221.867-128c-4.267 0-12.8 0-17.067-4.267 0 0 0 0 0 0s0 0 0 0 0 0 0 0zM546.133 652.8v-149.333l162.133 89.6v153.6l-162.133-93.867zM320 593.067l162.133-89.6v149.333l-162.133 93.867v-153.6zM354.133 797.867l157.867-89.6 157.867 89.6-157.867 93.867-157.867-93.867z" />
<glyph unicode="&#xe94d;" glyph-name="credit-card-pay" d="M930.133-46.933h-384c-51.2 0-93.867 42.667-93.867 93.867v256c0 51.2 42.667 93.867 93.867 93.867h384c51.2 0 93.867-42.667 93.867-93.867v-256c0-51.2-42.667-93.867-93.867-93.867zM512 209.067v-162.133c0-17.067 12.8-34.133 34.133-34.133h384c17.067 0 34.133 12.8 34.133 34.133v162.133h-452.267zM512 273.067h448v34.133c0 17.067-12.8 34.133-34.133 34.133h-384c-17.067 0-34.133-12.8-34.133-34.133v-34.133zM861.867 81.067h-64c-17.067 0-34.133 12.8-34.133 34.133s12.8 34.133 34.133 34.133h64c17.067 0 34.133-12.8 34.133-34.133s-12.8-34.133-34.133-34.133zM349.867 81.067h-256c-51.2 0-93.867 42.667-93.867 93.867v674.133c0 51.2 42.667 93.867 93.867 93.867h768c51.2 0 93.867-42.667 93.867-93.867v-349.867c0-17.067-12.8-34.133-34.133-34.133s-25.6 12.8-25.6 29.867v192h-832v-512c0-17.067 12.8-34.133 34.133-34.133h256c17.067 0 34.133-12.8 34.133-34.133s-17.067-25.6-38.4-25.6zM64 750.933h832v98.133c0 17.067-12.8 34.133-34.133 34.133h-768c-17.067 0-34.133-12.8-34.133-34.133v-98.133zM264.533 209.067c-17.067 0-34.133 12.8-34.133 34.133v17.067c-29.867 8.533-55.467 21.333-72.533 46.933-12.8 12.8-8.533 34.133 4.267 46.933s34.133 8.533 46.933-4.267c12.8-17.067 34.133-25.6 51.2-25.6 0 0 0 0 0 0 34.133 0 55.467 17.067 55.467 34.133s-21.333 34.133-55.467 34.133c-68.267 0-119.467 42.667-119.467 98.133 0 46.933 38.4 85.333 89.6 93.867v8.533c0 17.067 12.8 34.133 34.133 34.133s34.133-12.8 34.133-34.133v-17.067c29.867-8.533 55.467-21.333 72.533-46.933 12.8-12.8 8.533-34.133-4.267-46.933s-34.133-8.533-46.933 4.267c-12.8 17.067-29.867 25.6-51.2 25.6 0 0 0 0 0 0s-4.267 0-4.267 0c-34.133 0-55.467-17.067-55.467-34.133s21.333-34.133 55.467-34.133c68.267 4.267 119.467-38.4 119.467-93.867 0-46.933-38.4-85.333-89.6-93.867v-17.067c0-17.067-12.8-29.867-29.867-29.867z" />
<glyph unicode="&#xe94e;" glyph-name="credit-card-give" d="M34.133-64c-21.333 0-34.133 12.8-34.133 34.133v384c0 17.067 12.8 34.133 34.133 34.133s34.133-12.8 34.133-34.133v-34.133h256c76.8 0 140.8-55.467 157.867-128h132.267c89.6 0 162.133-72.533 162.133-162.133 0-17.067-12.8-34.133-34.133-34.133h-678.4v-34.133c0-12.8-12.8-25.6-29.867-25.6zM64 64h635.733c-12.8 38.4-46.933 64-89.6 64h-320c-17.067 0-34.133 12.8-34.133 34.133s12.8 29.867 34.133 29.867h123.733c-12.8 38.4-46.933 64-89.6 64h-256v-192zM930.133 285.867h-349.867c-17.067 0-34.133 12.8-34.133 34.133s12.8 34.133 34.133 34.133h349.867c17.067 0 34.133 12.8 34.133 34.133v315.733h-768v-256c0-17.067-12.8-34.133-34.133-34.133s-34.133 17.067-34.133 34.133v418.133c0 51.2 42.667 93.867 93.867 93.867h704c55.467 0 98.133-42.667 98.133-93.867v-477.867c0-55.467-42.667-102.4-93.867-102.4zM192 768h768v98.133c0 17.067-12.8 34.133-34.133 34.133h-704c-17.067 0-34.133-12.8-34.133-34.133v-98.133zM785.067 413.867c-21.333 0-46.933 8.533-64 21.333-29.867-21.333-64-25.6-98.133-12.8-46.933 17.067-76.8 59.733-76.8 106.667s29.867 89.6 76.8 106.667c34.133 12.8 72.533 4.267 98.133-12.8 29.867 21.333 64 25.6 98.133 12.8 46.933-17.067 76.8-59.733 76.8-106.667s-29.867-89.6-76.8-106.667c-12.8-4.267-21.333-8.533-34.133-8.533zM721.067 512c8.533 0 21.333-4.267 25.6-12.8 12.8-17.067 34.133-21.333 55.467-17.067 21.333 8.533 34.133 25.6 34.133 46.933s-12.8 38.4-34.133 46.933c-21.333 8.533-42.667 0-55.467-17.067s-38.4-17.067-51.2 0c-12.8 12.8-34.133 21.333-55.467 12.8s-34.133-25.6-34.133-46.933 12.8-38.4 34.133-46.933c21.333-8.533 42.667 0 55.467 17.067 4.267 12.8 12.8 17.067 25.6 17.067zM384 512h-93.867c-21.333 0-34.133 12.8-34.133 29.867s12.8 34.133 34.133 34.133h93.867c17.067 0 34.133-12.8 34.133-34.133s-17.067-29.867-34.133-29.867z" />
<glyph unicode="&#xe94f;" glyph-name="contract-share" d="M832-93.867c-8.533 0-21.333 4.267-25.6 12.8-25.6 38.4-42.667 81.067-51.2 123.733 0 0 0 4.267 0 4.267v55.467l-115.2 119.467c-34.133 34.133-34.133 89.6 0 123.733 17.067 17.067 38.4 25.6 64 25.6 21.333 0 46.933-8.533 59.733-25.6l25.6-25.6v162.133c0 12.8 8.533 25.6 17.067 29.867 12.8 4.267 25.6 4.267 34.133-4.267 81.067-68.267 149.333-132.267 149.333-213.333v-192l59.733-76.8c12.8-12.8 8.533-34.133-4.267-46.933s-34.133-8.533-46.933 4.267l-68.267 85.333c-4.267 4.267-8.533 12.8-8.533 21.333v204.8c0 38.4-29.867 76.8-72.533 115.2v-170.667c0-12.8-8.533-25.6-21.333-29.867s-25.6 0-34.133 8.533l-81.067 81.067c-4.267 4.267-8.533 8.533-17.067 8.533-4.267 0-12.8-4.267-17.067-8.533-8.533-8.533-8.533-25.6 0-34.133l123.733-128c4.267-4.267 8.533-12.8 8.533-21.333v-64c4.267-34.133 21.333-68.267 38.4-98.133 8.533-12.8 4.267-34.133-8.533-42.667 0-4.267-4.267-4.267-8.533-4.267zM648.533-29.867h-341.333c-55.467 0-102.4 46.933-102.4 102.4v298.667l-8.533 4.267c-76.8 72.533-162.133 140.8-157.867 230.4v192l-64 76.8c-8.533 12.8-8.533 34.133 4.267 42.667 12.8 12.8 34.133 8.533 46.933-4.267l68.267-85.333c4.267-4.267 8.533-12.8 8.533-21.333v-204.8c0-46.933 51.2-98.133 106.667-149.333v157.867l-29.867 25.6c-8.533 12.8-8.533 34.133 4.267 46.933s34.133 12.8 46.933 0l34.133-34.133c0 0 4.267-4.267 4.267-4.267l42.667-42.667c4.267-4.267 12.8-8.533 21.333-4.267 8.533 0 12.8 8.533 17.067 17.067 0 4.267-4.267 12.8-8.533 17.067l-123.733 128c-8.533 4.267-12.8 12.8-12.8 21.333v64c-4.267 34.133-17.067 68.267-38.4 98.133-8.533 12.8-4.267 34.133 8.533 42.667s34.133 4.267 42.667-8.533c25.6-38.4 42.667-81.067 51.2-123.733 0 0 0-4.267 0-4.267v-55.467l115.2-119.467c21.333-21.333 29.867-55.467 21.333-85.333s-34.133-55.467-64-59.733c-25.6-8.533-55.467 0-76.8 17.067v-473.6c0-21.333 17.067-38.4 38.4-38.4h341.333c17.067 0 34.133-12.8 34.133-34.133s-12.8-29.867-29.867-29.867zM554.667 140.8h-179.2c-17.067 0-34.133 12.8-34.133 34.133s12.8 34.133 34.133 34.133h179.2c17.067 0 34.133-12.8 34.133-34.133s-12.8-34.133-34.133-34.133zM443.733 311.467h-68.267c-17.067 0-34.133 12.8-34.133 34.133s12.8 34.133 34.133 34.133h68.267c17.067 0 34.133-12.8 34.133-34.133s-17.067-34.133-34.133-34.133zM682.667 516.267c-132.267 0-234.667 106.667-234.667 238.933s106.667 234.667 234.667 234.667c17.067 0 34.133-12.8 34.133-34.133s-17.067-29.867-34.133-29.867c-93.867 0-170.667-76.8-170.667-170.667s76.8-174.933 170.667-174.933 170.667 76.8 170.667 174.933c0 17.067 17.067 34.133 34.133 34.133s34.133-12.8 34.133-34.133c-4.267-132.267-106.667-238.933-238.933-238.933zM682.667 682.667c-17.067 0-29.867 4.267-42.667 17.067l-59.733 59.733c-12.8 12.8-12.8 34.133 0 46.933s34.133 12.8 46.933 0l55.467-55.467 183.467 183.467c12.8 12.8 34.133 12.8 46.933 0s12.8-34.133 0-46.933l-187.733-187.733c-12.8-12.8-25.6-17.067-42.667-17.067z" />
<glyph unicode="&#xe950;" glyph-name="api" d="M861.867-64h-768c-51.2 0-93.867 42.667-93.867 93.867v708.267c0 51.2 42.667 93.867 93.867 93.867h192c17.067 0 34.133-12.8 34.133-34.133s-12.8-29.867-29.867-29.867h-196.267c-17.067 0-34.133-12.8-34.133-34.133v-93.867h256c17.067 0 34.133-12.8 34.133-34.133s-12.8-29.867-29.867-29.867h-256v-546.133c0-17.067 12.8-34.133 34.133-34.133h768c17.067 0 34.133 12.8 34.133 34.133v192c0 17.067 12.8 34.133 34.133 34.133s34.133-12.8 34.133-34.133v-192c-8.533-51.2-51.2-93.867-106.667-93.867zM448 128c-4.267 0-8.533 0-8.533 0-17.067 4.267-25.6 25.6-21.333 38.4l64 192c4.267 17.067 25.6 25.6 38.4 21.333 17.067-4.267 25.6-25.6 21.333-38.4l-64-192c-4.267-12.8-17.067-21.333-29.867-21.333zM605.867 128c-8.533 0-17.067 4.267-21.333 8.533-12.8 12.8-12.8 34.133 0 46.933l72.533 72.533-72.533 72.533c-12.8 12.8-12.8 34.133 0 46.933s34.133 12.8 46.933 0l93.867-98.133c12.8-12.8 12.8-34.133 0-46.933l-93.867-93.867c-8.533-4.267-17.067-8.533-25.6-8.533zM349.867 128c-8.533 0-17.067 4.267-21.333 8.533l-93.867 98.133c-12.8 12.8-12.8 34.133 0 46.933l93.867 93.867c12.8 12.8 34.133 12.8 46.933 0s12.8-34.133 0-46.933l-72.533-72.533 72.533-72.533c12.8-12.8 12.8-34.133 0-46.933-8.533-4.267-17.067-8.533-25.6-8.533zM989.867 354.133c-8.533 0-17.067 4.267-21.333 8.533l-140.8 140.8c-42.667-34.133-98.133-55.467-157.867-55.467-140.8 0-256 115.2-256 256s115.2 256 256 256 256-115.2 256-256c0-59.733-21.333-115.2-55.467-157.867l140.8-140.8c12.8-12.8 12.8-34.133 0-46.933-4.267-4.267-12.8-4.267-21.333-4.267zM674.133 896c-106.667 0-192-85.333-192-192s85.333-192 192-192 192 85.333 192 192-89.6 192-192 192z" />
<glyph unicode="&#xe951;" glyph-name="add-pen" d="M179.2-64c-21.333 0-42.667 8.533-59.733 25.6-21.333 21.333-29.867 55.467-21.333 85.333l128 384c38.4 119.467 149.333 196.267 273.067 196.267 21.333 0 38.4 0 55.467-4.267l183.467 230.4c4.267 8.533 12.8 12.8 21.333 12.8s17.067-4.267 25.6-8.533l226.133-226.133c8.533-8.533 12.8-17.067 12.8-25.6s-4.267-17.067-12.8-21.333l-230.4-183.467c4.267-17.067 4.267-38.4 4.267-55.467 0-123.733-76.8-234.667-196.267-273.067l-384-128c-8.533-8.533-17.067-8.533-25.6-8.533zM439.467 230.4l-221.867-221.867 354.133 119.467c89.6 29.867 153.6 115.2 153.6 213.333 0 21.333-4.267 42.667-8.533 59.733 0 0 0 0 0 0-21.333 72.533-76.8 132.267-149.333 153.6 0 0-4.267 0-4.267 0-17.067 4.267-38.4 8.533-59.733 8.533-98.133 0-179.2-59.733-213.333-153.6l-119.467-354.133 221.867 221.867c-8.533 17.067-12.8 34.133-12.8 51.2 0 59.733 51.2 110.933 110.933 110.933s110.933-51.2 110.933-110.933-51.2-110.933-110.933-110.933c-21.333 0-38.4 4.267-51.2 12.8zM456.533 294.4c8.533-8.533 21.333-12.8 34.133-12.8 25.6 0 46.933 21.333 46.933 46.933s-21.333 46.933-46.933 46.933-46.933-21.333-46.933-46.933c0-12.8 4.267-21.333 12.8-34.133 0 4.267 0 4.267 0 0 0 4.267 0 4.267 0 0zM622.933 601.6c59.733-29.867 110.933-76.8 136.533-136.533l183.467 145.067-174.933 174.933-145.067-183.467zM192 576c-17.067 0-29.867 12.8-29.867 34.133v128h-128c-21.333 0-34.133 12.8-34.133 29.867s12.8 34.133 34.133 34.133h128v128c0 17.067 12.8 29.867 29.867 29.867s34.133-12.8 34.133-34.133v-128h128c17.067 0 29.867-12.8 29.867-29.867s-12.8-29.867-34.133-29.867h-128v-128c0-21.333-12.8-34.133-29.867-34.133z" />
<glyph unicode="&#xe952;" glyph-name="realtime-analytics" d="M733.867-64c-157.867 0-290.133 128-290.133 290.133s128 290.133 290.133 290.133 290.133-128 290.133-290.133-128-290.133-290.133-290.133zM733.867 448c-123.733 0-221.867-102.4-221.867-221.867s102.4-221.867 221.867-221.867 221.867 102.4 221.867 221.867-98.133 221.867-221.867 221.867zM320 64h-226.133c-51.2 0-93.867 42.667-93.867 93.867v708.267c0 51.2 42.667 93.867 93.867 93.867h452.267c25.6 0 51.2-8.533 68.267-29.867l123.733-123.733c21.333-17.067 29.867-38.4 29.867-64v-102.4c0-17.067-12.8-34.133-34.133-34.133s-34.133 12.8-34.133 34.133v102.4c0 8.533-4.267 17.067-8.533 21.333l-123.733 123.733c-4.267 4.267-12.8 8.533-21.333 8.533h-452.267c-17.067 0-34.133-12.8-34.133-34.133v-704c0-17.067 12.8-34.133 34.133-34.133h221.867c17.067 0 34.133-12.8 34.133-34.133s-12.8-25.6-29.867-25.6zM849.067 192h-115.2c-17.067 0-34.133 12.8-34.133 34.133v115.2c0 17.067 12.8 34.133 34.133 34.133s34.133-12.8 34.133-34.133v-81.067h81.067c17.067 0 34.133-12.8 34.133-34.133s-17.067-34.133-34.133-34.133zM349.867 320h-187.733c-21.333 0-34.133 12.8-34.133 34.133s12.8 34.133 34.133 34.133h34.133v153.6c-4.267 21.333 8.533 34.133 25.6 34.133s34.133-12.8 34.133-34.133v-162.133h64v290.133c0 21.333 12.8 34.133 29.867 34.133s34.133-12.8 34.133-34.133v-320c0-17.067-12.8-29.867-34.133-29.867zM477.867 512c-17.067 0-34.133 12.8-34.133 34.133v64c0 17.067 12.8 34.133 34.133 34.133s34.133-17.067 34.133-34.133v-64c0-21.333-12.8-34.133-34.133-34.133z" />
<glyph unicode="&#xe953;" glyph-name="laptop" d="M930.133 29.867h-836.267c-34.133 0-64 17.067-81.067 42.667s-21.333 59.733-8.533 89.6l89.6 192v413.867c0 51.2 42.667 93.867 93.867 93.867h640c51.2 0 93.867-42.667 93.867-93.867v-409.6l89.6-192c0 0 0 0 0 0 12.8-29.867 8.533-64-8.533-89.6-12.8-29.867-42.667-46.933-72.533-46.933zM149.333 320l-81.067-179.2c-4.267-8.533-4.267-21.333 4.267-29.867 4.267-8.533 17.067-12.8 25.6-12.8h832c12.8 0 21.333 4.267 25.6 12.8s8.533 21.333 4.267 29.867l-85.333 179.2h-725.333zM162.133 384h704v384c0 17.067-12.8 34.133-34.133 34.133h-640c-17.067 0-34.133-12.8-34.133-34.133v-384zM576 157.867h-128c-17.067 0-34.133 12.8-34.133 34.133s12.8 34.133 34.133 34.133h128c17.067 0 34.133-12.8 34.133-34.133s-17.067-34.133-34.133-34.133z" />
<glyph unicode="&#xe954;" glyph-name="download-pdf" d="M733.867-64c-157.867 0-290.133 128-290.133 290.133s128 290.133 290.133 290.133 290.133-128 290.133-290.133-128-290.133-290.133-290.133zM733.867 448c-123.733 0-221.867-102.4-221.867-221.867s102.4-221.867 221.867-221.867 221.867 102.4 221.867 221.867-98.133 221.867-221.867 221.867zM733.867 64c-4.267 0-8.533 0-12.8 4.267-4.267 0-8.533 4.267-8.533 8.533l-93.867 93.867c-12.8 12.8-12.8 34.133 0 46.933s34.133 12.8 46.933 0l42.667-42.667v179.2c0 17.067 12.8 34.133 34.133 34.133s34.133-12.8 34.133-34.133v-179.2l42.667 42.667c12.8 12.8 34.133 12.8 46.933 0s12.8-34.133 0-46.933l-93.867-93.867c-4.267-4.267-8.533-4.267-8.533-8.533-21.333-4.267-21.333-4.267-29.867-4.267zM320 64h-226.133c-51.2 0-93.867 42.667-93.867 93.867v708.267c0 51.2 42.667 93.867 93.867 93.867h452.267c25.6 0 51.2-8.533 68.267-29.867l123.733-123.733c21.333-17.067 29.867-38.4 29.867-64v-102.4c0-17.067-12.8-34.133-34.133-34.133s-34.133 12.8-34.133 34.133v102.4c0 8.533-4.267 17.067-8.533 21.333l-123.733 123.733c-4.267 4.267-12.8 8.533-21.333 8.533h-452.267c-17.067 0-34.133-12.8-34.133-34.133v-704c0-17.067 12.8-34.133 34.133-34.133h221.867c17.067 0 34.133-12.8 34.133-34.133s-12.8-25.6-29.867-25.6zM320 256h-157.867c-17.067 0-34.133 12.8-34.133 34.133s12.8 29.867 34.133 29.867h162.133c17.067 0 34.133-12.8 34.133-34.133s-21.333-29.867-38.4-29.867zM418.133 448h-256c-21.333 0-34.133 12.8-34.133 34.133s12.8 34.133 34.133 34.133h256c17.067 0 34.133-12.8 34.133-34.133s-17.067-34.133-34.133-34.133zM605.867 640h-443.733c-21.333 0-34.133 12.8-34.133 29.867s12.8 34.133 34.133 34.133h448c17.067 0 29.867-12.8 29.867-34.133s-12.8-29.867-34.133-29.867z" />
<glyph unicode="&#xe955;" glyph-name="dashboard" d="M733.867-64h-448c-17.067 0-29.867 12.8-29.867 29.867s12.8 34.133 34.133 34.133h68.267l21.333 128h-221.867c-89.6 0-162.133 72.533-162.133 162.133v512c4.267 85.333 76.8 157.867 162.133 157.867h704c89.6 0 162.133-72.533 162.133-162.133v-512c0-89.6-72.533-162.133-162.133-162.133h-217.6l21.333-128h68.267c17.067 0 34.133-12.8 34.133-34.133s-12.8-25.6-34.133-25.6zM422.4 0h179.2l-21.333 128h-136.533l-21.333-128zM68.267 256c12.8-38.4 51.2-64 89.6-64h704c42.667 0 76.8 25.6 89.6 64h-883.2zM64 320h896v477.867c0 51.2-42.667 93.867-93.867 93.867h-708.267c-51.2 0-93.867-42.667-93.867-93.867v-243.2l115.2 115.2c25.6 25.6 68.267 25.6 89.6 0l81.067-81.067 170.667 170.667c12.8 12.8 34.133 12.8 46.933 0s12.8-34.133 0-46.933l-170.667-170.667c-25.6-25.6-68.267-25.6-89.6 0l-85.333 85.333-162.133-157.867v-149.333zM861.867 413.867c-17.067 0-34.133 12.8-34.133 34.133v93.867c0 17.067 12.8 34.133 34.133 34.133s34.133-12.8 34.133-34.133v-93.867c0-17.067-12.8-34.133-34.133-34.133zM733.867 413.867c-17.067 0-34.133 12.8-34.133 34.133v192c0 17.067 12.8 34.133 34.133 34.133s34.133-17.067 34.133-34.133v-192c0-17.067-12.8-34.133-34.133-34.133zM605.867 413.867c-17.067 0-34.133 12.8-34.133 34.133v93.867c0 17.067 12.8 34.133 34.133 34.133s34.133-12.8 34.133-34.133v-93.867c0-17.067-12.8-34.133-34.133-34.133z" />
<glyph unicode="&#xe956;" glyph-name="cart-loop" d="M733.867-34.133c-4.267 0-12.8 0-17.067 0-76.8 4.267-149.333 46.933-192 110.933v-51.2c0-17.067-12.8-34.133-34.133-34.133s-34.133 12.8-34.133 34.133v145.067c0 17.067 12.8 34.133 34.133 34.133h25.6c0 0 0 0 0 0h123.733c17.067 0 34.133-12.8 34.133-34.133s-12.8-34.133-34.133-34.133h-76.8c25.6-64 85.333-106.667 157.867-110.933 85.333-4.267 162.133 46.933 187.733 123.733 4.267 17.067 25.6 25.6 42.667 21.333s25.6-25.6 21.333-42.667c-38.4-93.867-136.533-162.133-238.933-162.133zM362.667 200.533h-136.533c-42.667 0-76.8 29.867-85.333 68.267l-85.333 349.867c-8.533 25.6 0 55.467 12.8 76.8 17.067 21.333 42.667 34.133 68.267 34.133h46.933l166.4 166.4c12.8 12.8 34.133 12.8 46.933 0s12.8-34.133 0-46.933l-119.467-119.467h426.667l-119.467 119.467c-12.8 12.8-12.8 34.133 0 46.933s34.133 12.8 46.933 0l166.4-166.4h46.933c29.867 0 55.467-12.8 68.267-34.133 21.333-21.333 25.6-51.2 17.067-76.8l-12.8-46.933c-4.267-17.067-21.333-29.867-38.4-25.6s-29.867 21.333-25.6 38.4l12.8 46.933c4.267 8.533 0 17.067-4.267 21.333s-12.8 8.533-21.333 8.533h-59.733c0 0 0 0-4.267 0h-580.267c0 0 0 0 0 0h-55.467c-8.533 4.267-12.8 4.267-17.067-4.267-4.267-4.267-8.533-12.8-4.267-21.333l85.333-349.867c4.267-12.8 12.8-21.333 21.333-21.333h136.533c17.067 0 34.133-12.8 34.133-34.133s-17.067-29.867-34.133-29.867zM934.4 260.267c0 0 0 0 0 0h-119.467c-17.067 0-34.133 12.8-34.133 34.133s12.8 34.133 34.133 34.133h76.8c-25.6 64-85.333 106.667-157.867 110.933-81.067 4.267-162.133-46.933-187.733-123.733-4.267-17.067-25.6-25.6-42.667-21.333s-25.6 25.6-21.333 42.667c38.4 106.667 140.8 174.933 251.733 166.4 76.8-4.267 149.333-46.933 192-110.933v51.2c0 17.067 12.8 34.133 34.133 34.133s34.133-12.8 34.133-34.133v-145.067c0-17.067-12.8-34.133-34.133-34.133h-25.6c0-4.267 0-4.267 0-4.267z" />
<glyph unicode="&#xe957;" glyph-name="woocommerce" d="M928.552 746.658c52.736 0 95.448-41.849 95.448-93.507v-311.808c0-51.712-42.712-93.534-95.448-93.534h-298.9l41.014-98.466-180.44 98.466h-394.779c-52.736-0.027-95.448 41.822-95.448 93.48v311.862c-0.404 51.281 42.307 93.534 95.043 93.534h833.482zM440.293 691.82l-4.042-0.135c-12.153-0.808-21.369-6.548-27.648-18.055-25.95-46.349-44.382-121.425-55.242-225.63-15.926 39.397-29.319 85.747-39.801 140.315-4.581 24.199-15.899 35.678-34.331 34.466-12.557-0.808-23.013-9.027-31.394-24.63l-91.675-171.062c-15.091 59.473-29.319 132.096-42.307 217.843-2.91 21.315-15.037 31.178-36.379 29.534-11.749-0.808-20.534-4.931-26.408-12.719-5.848-7.384-7.949-16.815-6.683-27.486 24.711-153.869 47.724-257.644 69.066-311.377 8.381-19.699 18.001-29.13 29.319-28.295 17.57 1.213 38.535 25.007 63.219 71.357 12.962 26.247 33.064 65.644 60.281 118.164 22.609-77.555 53.571-135.815 92.51-174.781 10.887-11.048 22.205-16.007 33.064-15.171 9.647 0.808 17.165 5.74 22.205 14.767 4.177 7.815 5.848 16.815 5.012 27.082-2.506 37.322 1.267 89.438 11.722 156.295 10.887 68.931 24.28 118.568 40.61 148.103 3.341 6.171 4.608 12.315 4.204 19.699-0.862 9.432-5.039 17.246-12.989 23.39s-16.734 9.027-26.381 8.192zM861.561 647.384c-40.179 0-72.839-20.507-98.358-61.548-21.773-34.87-32.66-73.432-32.66-115.685 0-31.582 6.683-58.664 20.076-81.219 15.091-25.869 37.268-41.445 66.991-47.589 7.949-1.644 15.495-2.479 22.609-2.479 40.61 0 73.27 20.534 98.358 61.548 21.8 35.301 32.687 73.836 32.687 116.089 0 32.013-6.71 58.691-20.103 80.842-15.091 25.843-37.268 41.418-66.991 47.589-7.949 1.617-15.495 2.452-22.609 2.452zM599.094 647.384c-40.205 0-72.866-20.507-98.385-61.548-21.773-34.87-32.66-73.432-32.66-115.685 0-31.582 6.683-58.664 20.103-81.219 15.064-25.869 37.241-41.445 66.964-47.589 7.949-1.644 15.495-2.479 22.636-2.479 40.583 0 73.243 20.534 98.358 61.548 21.773 35.301 32.66 73.836 32.66 116.089 0 32.013-6.71 58.691-20.103 80.842-15.091 25.843-37.672 41.418-66.991 47.589-7.949 1.617-15.468 2.452-22.609 2.452zM869.107 578.048c10.051-2.048 18.405-10.671 24.684-26.678 5.039-12.692 7.545-25.411 7.545-37.322 0-10.671-1.267-20.911-2.937-30.343-5.848-27.082-16.33-47.185-31.798-60.739-12.126-10.671-23.444-15.171-33.927-13.123-10.051 2.048-18.405 10.671-24.684 26.678-5.039 12.719-7.545 25.438-7.545 37.322 0 10.24 0.835 20.507 2.937 29.965 3.773 16.815 10.887 33.226 22.178 48.802 13.824 20.103 28.483 28.295 43.547 25.438zM606.639 578.048c10.024-2.048 18.405-10.671 24.684-26.678 5.012-12.692 7.545-25.411 7.545-37.322 0-10.671-0.862-20.911-2.964-30.343-5.848-27.082-16.303-47.185-31.798-60.739-12.126-10.671-23.444-15.171-33.9-13.123-10.051 2.048-18.432 10.671-24.711 26.678-5.012 12.719-7.545 25.438-7.545 37.322 0 10.24 0.835 20.507 2.964 29.965 3.746 16.815 10.86 33.226 22.151 48.802 13.824 20.103 28.483 28.295 43.547 25.438z" />
<glyph unicode="&#xe958;" glyph-name="opencart" d="M768 192c15.334 30.668 32.168 62.667 50.499 96.001 18.334 33.333 31.668 57.667 40.001 72.999 8.332 15.334 15.5 30.502 21.5 45.501s9 27.834 9 38.499c0 34.668-6.5 64.333-19.5 89.001-13 24.666-28.834 36.999-47.501 36.999-131.332 0-251.332 8-359.998 24-170.667 24.668-298.001 80.001-382.001 166-14 16-23.333 27.333-28 34s-11.333 17.833-20 33.5c-8.667 15.667-15.167 33.667-19.5 54s-8.5 46.167-12.5 77.5c8-22 16.167-41.5 24.5-58.5s15.667-30.333 22-40c6.333-9.667 14.167-18.833 23.5-27.5s16.167-14.667 20.5-18c4.333-3.333 11.5-7.667 21.5-13s16.333-9 19-11c94.001-58.666 349.001-88 765-88 32.668 0 62.167-13.5 88.501-40.499 26.334-27.002 39.499-57.833 39.499-92.501 0-20-3-40.333-9-61.001-6-20.666-16-42.333-29.999-64.999-14-22.668-27.334-42.833-40.002-60.499-12.666-17.668-30.999-39.502-54.999-65.501s-43.167-46.499-57.499-61.499c-14.334-15.002-35.833-36.833-64.501-65.501zM287.999 128.001c26.668 0 49.333-9.334 68.001-28.002 18.666-18.666 28-41.333 28-67.999 0-26.668-9.334-49.333-28-68.001-18.668-18.666-41.333-28-68.001-28-26.665 0-49.333 9.334-67.999 28-18.667 18.668-28.001 41.333-28.001 68.001 0 26.665 9.333 49.333 28.001 67.999 18.666 18.668 41.333 28.002 67.999 28.002zM671.999 128.001c26.668 0 49.333-9.334 68.001-28.002 18.666-18.666 28-41.333 28-67.999 0-26.668-9.334-49.333-28-68.001-18.668-18.666-41.333-28-68.001-28-26.665 0-49.333 9.334-67.999 28-18.668 18.668-28.002 41.333-28.002 68.001 0 26.665 9.334 49.333 28.002 67.999 18.666 18.668 41.333 28.002 67.999 28.002z" />
</font>
</defs>
</svg>
